Сегодня идет свободное скачивание без начисления Download

Бруклин 9-9 / Brooklyn Nine-Nine / Сезон: 3 / Серии: 1-13 из 22 (Фил Лорд) [2015, Комедия, WEB-DL 1080p] MVO (NewStudio) + Original + Subs (Rus, Eng)

Ответить на тему
 
Автор
Сообщение

Omen ®

Стаж: 5 лет 10 месяцев

Сообщений: 184329

Торрент-статистика

Пост 01-Фев-2016 00:03

[Цитировать]

Бруклин 9-9 / Brooklyn Nine-Nine Год выпуска: 2015
Страна: США
Жанр: Комедия
Продолжительность: ~00:23:00
Перевод: Профессиональный (многоголосый закадровый) NewStudio
Режиссёр: Фил Лорд
В ролях: Энди Сэмберг, Андре Брогер, Терри Крюс, Мелисса Фумеро, Джо Ло Трульо, Стефани Беатриз
Описание: История о том, что происходит, когда у детектива, не воспринимающего ничего серьезно, появляется новый руководитель, который хочет, чтобы он рос и с уважением относился к своей должности.
Сэмпл: Ссылка
Качество: WEB-DL 1080p
Формат: MKV
Видео: AVC, 1920x1080 (16:9), 23.976 fps, 4 960 kb/s
Аудио: russian / русский, AC3, 48 kHz, 6 ch, 384 kbps
Аудио 2: english / английский, AC3, 48 kHz, 6 ch, 384 kbps
Субтитры: Присутствуют субтитры к 1-12 сериям.(Английский) + 1-10 серии (Русские)

Список серий

1.Новый капитан (New Captain)
2.Похороны (The Funeral)
3.Чутье Бойла (Boyle's Hunch)
4.Улуновый маньяк (The Oolong Slayer)
5.Хэллоуин, часть 3 (Halloween III)
6.Чем дальше в лес... (Into the Woods)
7.Матрас (The Mattress)
8.Эйва (Ava)
9.Шведы (The Swedes)
10.Yippie Kayak
11.Захват заложников (Hostage Situation)
12.9 дней (9 Days)
13.Круиз (The Cruise)

MediaInfo

General
Unique ID : 216425845686846850238572302719851465980 (0xA2D21A08AB010528BD62941C6CF48CFC)
Complete name : D:\Downloads\Brooklyn.Nine.Nine.S03E02.WEBDL.1080p.NewStudio.TV.mkv
Format : Matroska
Format version : Version 4 / Version 2
File size : 903 MiB
Duration : 21mn 36s
Overall bit rate : 5 844 Kbps
Encoded date : UTC 2015-10-05 20:40:51
Writing application : mkvmerge v8.3.0 ('Over the Horizon') 64bit
Writing library : libebml v1.3.1 + libmatroska v1.4.2
DURATION : 00:21:36.672000000
NUMBER_OF_FRAMES : 40521
NUMBER_OF_BYTES : 62240256
_STATISTICS_WRITING_APP : mkvmerge v8.3.0 ('Over the Horizon') 64bit
_STATISTICS_WRITING_DATE_UTC : 2015-10-05 20:40:51
_STATISTICS_TAGS : BPS DURATION NUMBER_OF_FRAMES NUMBER_OF_BYTES
Video
ID : 1
Format : AVC
Format/Info : Advanced Video Codec
Format profile : High@L4
Format settings, CABAC : Yes
Format settings, ReFrames : 4 frames
Codec ID : V_MPEG4/ISO/AVC
Duration : 21mn 36s
Bit rate : 4 960 Kbps
Width : 1 920 pixels
Height : 1 080 pixels
Display aspect ratio : 16:9
Frame rate mode : Constant
Frame rate : 23.976 fps
Color space : YUV
Chroma subsampling : 4:2:0
Bit depth : 8 bits
Scan type : Progressive
Bits/(Pixel*Frame) : 0.100
Stream size : 767 MiB (85%)
Language : English
Default : Yes
Forced : No
Color range : Limited
Color primaries : BT.709
Transfer characteristics : BT.709
Matrix coefficients : BT.709
Audio #1
ID : 2
Format : AC-3
Format/Info : Audio Coding 3
Mode extension : CM (complete main)
Format settings, Endianness : Big
Codec ID : A_AC3
Duration : 21mn 36s
Bit rate mode : Constant
Bit rate : 384 Kbps
Channel(s) : 6 channels
Channel positions : Front: L C R, Side: L R, LFE
Sampling rate : 48.0 KHz
Compression mode : Lossy
Stream size : 59.4 MiB (7%)
Language : Russian
Default : Yes
Forced : No
Audio #2
ID : 3
Format : AC-3
Format/Info : Audio Coding 3
Mode extension : CM (complete main)
Format settings, Endianness : Big
Codec ID : A_AC3
Duration : 21mn 36s
Bit rate mode : Constant
Bit rate : 384 Kbps
Channel(s) : 6 channels
Channel positions : Front: L C R, Side: L R, LFE
Sampling rate : 48.0 KHz
Compression mode : Lossy
Stream size : 59.4 MiB (7%)
Language : English
Default : No
Forced : No

Скриншоты

Внимание! Раздача ведётся путём добавления новых серий

Внимание! Раздача ведётся путём добавления новых серий, при каждом добавлении создаётся новый торрент. Чтобы начать докачку новой серии, пользователям необходимо сделать следующее:
Остановить скачивание.
Удалить старый торрент у себя из клиента (старые серии удалять не надо).
Скачать новый торрент и запустить его у себя в клиенте вместо старого, при этом указать клиенту путь в старую папку куда и должно происходить скачивание новых серий.
Ваш клиент при этом должен произвести хеширование (проверку) старой папки (если не производит сам - помогите ему сделать это), и будет докачивать только те серии которых у вас ещё нет. Старые серии при этом не удаляются, а продолжают раздаваться!
Eсли вы уже удалили старые серии, то предотвратить повторную закачку старых серий можно, отжав галочку в соответствующих местах при запуске нового торрента. По возможности, желательно не удалять старые серии как можно дольше, чтобы релизёр не только продолжал раздавать старые серии, а смог сконцентрироваться на новых.
Текст взят у пользователя Fed0rR
Внимание! Убедительная просьба всем, уже скачавшим или только качающим-остановить скачку\раздачу сериала, удалить папку "subtitles",и заново скачать эту раздачу(файлы субтитров переименованы в связи с неправильным оформлением).
Раздача обновлена!(31 января 2016).Добавлена 13 серия!
Вне форума [Профиль] [ЛС]
Показать сообщения:    
Ответить на тему

Текущее время: Сегодня 14:15

Часовой пояс: GMT + 3



Вы не можете начинать темы
Вы не можете отвечать на сообщения
Вы не можете редактировать свои сообщения
Вы не можете удалять свои сообщения
Вы не можете голосовать в опросах
Вы не можете прикреплять файлы к сообщениям
Вы не можете скачивать файлы