Сегодня идет свободное скачивание без начисления Download

Баскетс / Baskets / Сезон: 1 / Серии: 1 из 10 (Джонатан Крисел) [2016, Комедия, WEB-DLRip] MVO (Кубик в Кубе) + Original

Ответить на тему
 
Автор
Сообщение

Omen ®

Стаж: 6 лет 1 месяц

Сообщений: 184308

Торрент-статистика

Пост 01-Фев-2016 00:00

[Цитировать]

Баскетс | Конченый | Baskets- Год выпуска: 2016
Страна: США
Жанр: Комедия
Продолжительность: 00:25:00
Перевод: Профессиональный (многоголосый закадровый) Кубик в Кубе--Режиссёр: Джонатан Крисел
В ролях: Зак Галифианакис, Малия Пайлс, Том Проктер, Гарри Клеммонс, Джейсон Клеммонс и др.-Описание: История Чипа Баскетса - чудаковатого калифорнийца, мечтающего стать профессиональным клоуном. Поступление в престижную парижскую школу, где учат этому ремеслу, он проваливает и устраивается работать клоуном на родео.--Рип: ЛП
Работа со звуком: Messafan
--Сэмпл: http://multi-up.com/1087040-Качество: WEB-DLRip
Формат: AVI
Видео: XVID, 720x400 (16:9), 23.976 fps, 2000 kbps avg, 0.29 bit/pixel
Аудио Rus: AC3 Dolby Digital, 48.0 KHz, 6 channels, 384 kbps avg
Аудио Eng: AC3 Dolby Digital, 48.0 KHz, 6 channels, 384 kbps avg
Субтитры: отсутствуют

MediaInfo

General
Complete name : E:\Баскетс (Сезон 1) Кубик в Кубе\Baskets.s01e01.rus.eng.CasStudio.avi
Format : AVI
Format/Info : Audio Video Interleave
File size : 500 MiB
Duration : 25mn 11s
Overall bit rate : 2 777 Kbps
Writing application : VirtualDubMod 1.5.10.2 (build 2540/release)
Writing library : VirtualDubMod build 2540/release
Video
ID : 0
Format : MPEG-4 Visual
Format profile : Advanced Simple@L5
Format settings, BVOP : 1
Format settings, QPel : No
Format settings, GMC : No warppoints
Format settings, Matrix : Default (MPEG)
Codec ID : XVID
Codec ID/Hint : XviD
Duration : 25mn 11s
Bit rate : 1 995 Kbps
Width : 720 pixels
Height : 400 pixels
Display aspect ratio : 16:9
Frame rate : 23.976 fps
Color space : YUV
Chroma subsampling : 4:2:0
Bit depth : 8 bits
Scan type : Progressive
Compression mode : Lossy
Bits/(Pixel*Frame) : 0.289
Stream size : 359 MiB (72%)
Writing library : XviD 73
Audio #1
ID : 1
Format : AC-3
Format/Info : Audio Coding 3
Mode extension : CM (complete main)
Format settings, Endianness : Big
Codec ID : 2000
Duration : 25mn 11s
Bit rate mode : Constant
Bit rate : 384 Kbps
Channel count : 6 channels
Channel positions : Front: L C R, Side: L R, LFE
Sampling rate : 48.0 KHz
Bit depth : 16 bits
Compression mode : Lossy
Delay relative to video : 15ms
Stream size : 69.2 MiB (14%)
Alignment : Split accross interleaves
Interleave, duration : 42 ms (1.00 video frame)
Interleave, preload duration : 500 ms
Audio #2
ID : 2
Format : AC-3
Format/Info : Audio Coding 3
Mode extension : CM (complete main)
Format settings, Endianness : Big
Codec ID : 2000
Duration : 25mn 11s
Bit rate mode : Constant
Bit rate : 384 Kbps
Channel count : 6 channels
Channel positions : Front: L C R, Side: L R, LFE
Sampling rate : 48.0 KHz
Bit depth : 16 bits
Compression mode : Lossy
Delay relative to video : 15ms
Stream size : 69.2 MiB (14%)
Alignment : Split accross interleaves
Interleave, duration : 42 ms (1.00 video frame)
Interleave, preload duration : 500 ms

Скриншоты

Ссылка на предыдущие и альтернативные раздачи

-

Внимание! Раздача ведётся путём добавления новых серий!

Внимание! Раздача ведётся путём добавления новых серий; при каждом добавлении создаётся новый торрент.
Чтобы начать докачку новой серии, пользователям необходимо сделать следующее:

1. Остановить скачивание.
2. Удалить старый торрент у себя из клиента (старые серии удалять не надо).
3. Скачать новый торрент и запустить его у себя в клиенте вместо старого, при этом указать клиенту путь в старую папку куда и должно происходить скачивание новых серий.

Ваш клиент при этом должен произвести хеширование (проверку) старой папки (если не производит сам - помогите ему сделать это), и будет докачивать только те серии которых у вас ещё нет. Старые серии при этом не удаляются, а продолжают раздаваться!
Eсли вы уже удалили старые серии, то предотвратить повторную закачку старых серий можно, отжав галочку в соответсвующих местах при запуске нового торрента.
-
Вне форума [Профиль] [ЛС]
Показать сообщения:    
Ответить на тему

Текущее время: Сегодня 23:45

Часовой пояс: GMT + 3



Вы не можете начинать темы
Вы не можете отвечать на сообщения
Вы не можете редактировать свои сообщения
Вы не можете удалять свои сообщения
Вы не можете голосовать в опросах
Вы не можете прикреплять файлы к сообщениям
Вы не можете скачивать файлы