Сегодня идет свободное скачивание без начисления Download

Роковые ошибки Тодда Маргарета / The Increasingly Poor Decisions of Todd Margaret / Сезон: 2 / Серия: 4-6 из 6 (Бен Грегор) [2012 г., Комедия, HDTVRip 720p] VO (SNK-TV) + Original + Rus Subs

Ответить на тему
 
Автор
Сообщение

Omen ®

Стаж: 5 лет 9 месяцев

Сообщений: 184433

Торрент-статистика

Пост 31-Янв-2016 21:34

[Цитировать]

Роковые ошибки Тодда Маргарета
The Increasingly Poor Decisions of Todd Margaret
- Год выпуска: 2012
Страна: США
Жанр: Комедия
Продолжительность: ~25 минут-Перевод: Любительский (одноголосый закадровый) - /SNK-TV/
Субтитры: Русские (Полные) - prokuratorpp-Режиссёр: Бен Грегор
В ролях:Дэвид Кросс, Джон Форчун, Уилл Арнетт, Эмбер Тэмблин, Шарон Хорган, Кайван Новак, Блейк Харрисон, Роджер Уоткинс, Кэти Мерфи, Спайк Джонз, Elisha Willett, Джанин Гарофало, Расс Тэмблин-Описание: Американец Тодд Маргарет (Девид Кросс) волей случая попадает в лондонский филиал компании, в которой он работает. Все, что от него требуется - продать за неделю несколько тысяч корейских энергетических напитков, прежде чем приедет его босс с проверкой. Проблема в том, что он ничего не знает ни о британской культуре, ни о торговле.-
Скачать сэмпл--Качество: HDTVRip 720p
Формат: MKV
Видео кодек: H264
Аудио кодек: AC3
Видео: MPEG4 Video (H264) 1280x720 25fps 2 996 Kbps
Аудио Rus: Dolby AC3 48000Hz stereo 192kbp
Аудио Eng: Dolby AC3 48000Hz 6ch 384kbps-

Список серий

04. In Which Todd Accidentally Learns a Secret and Brent and Doug Get Closer to Further From the Truth
05. The Crime Scene, The Storyteller and the Sanctimonious Tower of Morality
06. Conclusion

Скриншоты

-

Раздача ведётся путём добавления новых серий

Внимание! Раздача ведётся путём добавления новых серий; при каждом добавлении создаётся новый торрент. Чтобы начать докачку новой серии, пользователям необходимо сделать следующее:
(1) остановить скачивание,
(2) удалить старый торрент у себя из клиента (старые серии удалять не надо),
(3) скачать новый торрент и запустить его у себя в клиенте вместо старого, при этом указать клиенту путь в старую папку куда и должно происходить скачивание новых серий.
Ваш клиент при этом должен произвести хеширование (проверку) старой папки (если не производит сам - помогите ему сделать это), и будет докачивать только те серии которых у вас ещё нет. Старые серии при этом не удаляются, а продолжают раздаваться!
Eсли вы уже удалили старые серии, то предотвратить повторную закачку старых серий можно, отжав галочку в соответствующих местах при запуске нового торрента. По возможности, желательно не удалять старые серии как можно дольше чтобы релизёр не столько продолжал раздавать старые серии, а смог сконцентрироваться на новых.
-

MediaInfo

General
Unique ID : 173813665758293580597701909353917632204 (0x82C34B5B5BA07ED9B8A8567ADC7CCECC)
Complete name : W:\Торка на W\Новая папка\Todd.Margaret.Season.2.720p.SNK-TV\The.Increasingly.Poor.Decisions.Of.Todd.Maragret.s02e04.HDTVRip.720p.SNK-TV.mkv
Format : Matroska
Format version : Version 4 / Version 2
File size : 588 MiB
Duration : 22mn 32s
Overall bit rate : 3 645 Kbps
Encoded date : UTC 2016-01-13 20:17:40
Writing application : mkvmerge v8.1.0 ('Psychedelic Postcard') 64bit
Writing library : libebml v1.3.1 + libmatroska v1.4.2
DURATION : 00:22:32.576000000
NUMBER_OF_FRAMES : 42268
NUMBER_OF_BYTES : 32461824
_STATISTICS_WRITING_APP : mkvmerge v8.1.0 ('Psychedelic Postcard') 64bit
_STATISTICS_WRITING_DATE_UTC : 2016-01-13 20:17:40
_STATISTICS_TAGS : BPS DURATION NUMBER_OF_FRAMES NUMBER_OF_BYTES
Video
ID : 1
Format : AVC
Format/Info : Advanced Video Codec
Format profile : High@L4.1
Format settings, CABAC : Yes
Format settings, ReFrames : 5 frames
Codec ID : V_MPEG4/ISO/AVC
Duration : 22mn 32s
Bit rate : 2 996 Kbps
Width : 1 280 pixels
Height : 720 pixels
Display aspect ratio : 16:9
Frame rate mode : Constant
Frame rate : 25.000 fps
Color space : YUV
Chroma subsampling : 4:2:0
Bit depth : 8 bits
Scan type : Progressive
Bits/(Pixel*Frame) : 0.130
Stream size : 483 MiB (82%)
Writing library : x264 core 120 r2120 0c7dab9
Encoding settings : cabac=1 / ref=5 / deblock=1:0:0 / analyse=0x3:0x113 / me=umh / subme=8 / psy=1 / psy_rd=1.00:0.00 / mixed_ref=1 / me_range=16 / chroma_me=1 / trellis=1 / 8x8dct=1 / cqm=0 / deadzone=21,11 / fast_pskip=1 / chroma_qp_offset=-2 / threads=12 / sliced_threads=0 / nr=0 / decimate=1 / interlaced=0 / bluray_compat=0 / constrained_intra=0 / bframes=3 / b_pyramid=2 / b_adapt=2 / b_bias=0 / direct=3 / weightb=1 / open_gop=0 / weightp=2 / keyint=250 / keyint_min=25 / scenecut=40 / intra_refresh=0 / rc_lookahead=50 / rc=crf / mbtree=1 / crf=19.0 / qcomp=0.60 / qpmin=0 / qpmax=69 / qpstep=4 / ip_ratio=1.40 / aq=1:1.00
Language : English
Default : Yes
Forced : No
DURATION : 00:22:32.520000000
NUMBER_OF_FRAMES : 33813
NUMBER_OF_BYTES : 518453059
_STATISTICS_WRITING_APP : mkvmerge v8.1.0 ('Psychedelic Postcard') 64bit
_STATISTICS_WRITING_DATE_UTC : 2016-01-13 20:17:40
_STATISTICS_TAGS : BPS DURATION NUMBER_OF_FRAMES NUMBER_OF_BYTES
Audio #1
ID : 2
Format : AC-3
Format/Info : Audio Coding 3
Mode extension : CM (complete main)
Format settings, Endianness : Big
Codec ID : A_AC3
Duration : 22mn 32s
Bit rate mode : Constant
Bit rate : 192 Kbps
Channel(s) : 2 channels
Channel positions : Front: L R
Sampling rate : 48.0 KHz
Compression mode : Lossy
Stream size : 31.0 MiB (5%)
Title : Rus (SNK-TV)
Language : Russian
Default : Yes
Forced : No
Audio #2
ID : 3
Format : AC-3
Format/Info : Audio Coding 3
Mode extension : CM (complete main)
Format settings, Endianness : Big
Codec ID : A_AC3
Duration : 22mn 32s
Bit rate mode : Constant
Bit rate : 384 Kbps
Channel(s) : 6 channels
Channel positions : Front: L C R, Side: L R, LFE
Sampling rate : 48.0 KHz
Compression mode : Lossy
Stream size : 61.9 MiB (11%)
Title : Eng
Language : English
Default : No
Forced : No
Text
ID : 4
Format : UTF-8
Codec ID : S_TEXT/UTF8
Codec ID/Info : UTF-8 Plain Text
Title : Rus
Language : Russian
Default : No
Forced : No
-

Примечание

Проскакивает мат.-
--
Вне форума [Профиль] [ЛС]
Похожие темы
Форум Тема Автор Торрент Отв. Посл. сообщение
./templates/default/images/folder_dl.gif Обучающее видео Данил Васенёв | Сказочные фантазии 5 уроков (2014) WEBRip [H.264/1080p] [60fps] Omen
1 | 0

0 | 1400

27

2014-11-14 15:43
Omen Последнее
./templates/default/images/folder_dl.gif Обучающее видео Евгений Карташов.Сборник из 86 видеоуроков (2014) [2014, RUS] Omen
0 | 1

1 | 2841

0

2015-09-10 10:59
Антон1982 Последнее
./templates/default/images/folder_dl.gif Обучающее видео Сборник авторских видео уроков по художественной обработке фото в PhotoShop [2016, RUS] Omen
1 | 0

0 | 625

8

2016-10-31 01:00
Omen Последнее
./templates/default/images/folder_dl.gif Бизнес, Право, Экономика, Финансы Николай Кононов | Автор, ножницы, бумага. Как быстро писать впечатляющие тексты. 14 уроков (2017) [FB2] }{@R0N
1 | 0

0 | 6658

12

2017-04-01 20:53
}{@R0N Последнее
./templates/default/images/folder_dl.gif Фантастика, фэнтези, ужасы, мистика Алексей Широков, Александр Шапочкин | Рубикон (2018) [FB2] }{@R0N
1 | 0

0 | 481

8

2018-02-20 22:37
}{@R0N Последнее
./templates/default/images/folder_dl.gif Обучающая и развивающая литература, учебники Роман Шкловский | Стань фотографом за 8 уроков (2016) [PDF, RTF] }{@R0N
1 | 0

0 | 584

10

2018-04-08 08:40
}{@R0N Последнее
Показать сообщения:    
Ответить на тему

Текущее время: Сегодня 17:31

Часовой пояс: GMT + 3



Вы не можете начинать темы
Вы не можете отвечать на сообщения
Вы не можете редактировать свои сообщения
Вы не можете удалять свои сообщения
Вы не можете голосовать в опросах
Вы не можете прикреплять файлы к сообщениям
Вы не можете скачивать файлы