Сегодня идет свободное скачивание без начисления Download

Черные паруса / Black Sails / Сезон: 3 / Серии: 1-2 из 10 (Нил Маршалл, Сэм Миллер, Т.Дж. Скотт) [2016, драма, приключения, HDTVRip 1080p] MVO (SDI Media) + Original + Subs (Rus, Eng)

Ответить на тему
 
Автор
Сообщение

Omen ®

Стаж: 6 лет 1 месяц

Сообщений: 184308

Торрент-статистика

Пост 31-Янв-2016 18:00

[Цитировать]

Черные паруса / Black Sails
Сезон: 3 / Серии: 1-2 из 10
-Год выхода: 2016
Выпущено: США, ЮАР
Жанр: драма, приключения
Перевод: Профессиональный (многоголосый закадровый) SDI Media
Продолжительность: ~00:58:00 [серия]
Создатель: Роберт Ливайн, Джонатан Е. Стейнберг, Хезер Беллсон
Режиссёр: Стив Бойум, Алик Сахаров, Лукас Эттлин
В ролях: Тоби Стивенс, Ханна Нью, Люк Арнольд, Джессика Паркер Кеннеди, Шон Майкл, Зэк МакГоун, Клара Пэджет, Хаким Кае-Казим, Том Хоппер, Марк Райан
Описание: 1715 год. Золотой век — вершина пиратства в Карибском море. Остров бывшей британской колонии Нью-Провиденс является территорией беззакония, контролируемый самыми известными пиратскими капитанами в истории. Самым грозным из них является капитан Флинт.Но британский флот возвращается в эти воды, угрожая уничтожить Флинта и его команду. Движимый глубокими, сложными, даже романтическими мотивами, Флинт становится союзником с грозной Элеонорой Гатри, дочерью местного вора в законе, который превращает добычу пиратов в прибыль. Вместе они создают план, охотясь за высшей наградой, выиграв которую, они остановят захват своего дома и обеспечат их выживание.Им противостоит ряд соперников: конкурент капитана, завидующий власти Флинта, отец Элеоноры, чьи амбиции на острове приводят к конфликту с дочерью, и молодой моряк, Джон Сильвер, недавно принятый в экипаж Флинта, которому каким-то образом удается постоянно срывать планы своего капитана.
Релиз: CasStudio
Качество: HDTVRip 1080p | Семпл
Формат: MKV
Видео: AVC (x264) | 1920x1080p | 25.000 fps | ~5000 kbps
Аудио #1: AC3 | 48 KHz | 5.1 (Front: L С R Side: L R) + LFE | ~640 kbps [RUS] - MVO (SDI Media)
Аудио #2: AC3 | 48 KHz | 5.1 (Front: L C R Side: L R) + LFE | ~384 kbps [ENG] - Original
Субтитры: Русские (Серии: 1-2) Английские (Серии: 1-2)

Media Info

Код:
General
Unique ID                      : 230863903212315603708233233179297275055 (0xADAEC53ABC1A1D579718957890495CAF)
Format                         : Matroska
Format version                 : Version 4 / Version 2
File size                      : 2.42 GiB
Duration                       : 57mn 30s
Overall bit rate               : 6 018 Kbps
Movie name                     : Black.Sails.S03E01.XIX.1080p.HDTV.DD5.1.x264-CasStudio
Encoded date                   : UTC 2016-01-31 12:52:53
Writing application            : mkvmerge v8.8.0 ('Wind at my back') 64bit
Writing library                : libebml v1.3.3 + libmatroska v1.4.4
Cover                          : Yes
Attachments                    : Cover
Video
ID                             : 1
Format                         : AVC
Format/Info                    : Advanced Video Codec
Format profile                 : High@L4.1
Format settings, CABAC         : Yes
Format settings, ReFrames      : 4 frames
Codec ID                       : V_MPEG4/ISO/AVC
Duration                       : 57mn 30s
Bit rate                       : 5 000 Kbps
Width                          : 1 920 pixels
Height                         : 1 080 pixels
Display aspect ratio           : 16:9
Frame rate mode                : Constant
Frame rate                     : 25.000 fps
Color space                    : YUV
Chroma subsampling             : 4:2:0
Bit depth                      : 8 bits
Scan type                      : Progressive
Bits/(Pixel*Frame)             : 0.096
Stream size                    : 2.00 GiB (83%)
Title                          : Amedia
Writing library                : x264 core 142 r2491 24e4fed
Encoding settings              : cabac=1 / ref=3 / deblock=1:1:-1 / analyse=0x3:0x133 / me=umh / subme=9 / psy=1 / psy_rd=1.00:0.00 / mixed_ref=1 / me_range=48 / chroma_me=1 / trellis=2 / 8x8dct=1 / cqm=0 / deadzone=21,11 / fast_pskip=0 / chroma_qp_offset=-2 / threads=36 / lookahead_threads=4 / sliced_threads=0 / slices=4 / nr=0 / decimate=1 / interlaced=0 / bluray_compat=0 / constrained_intra=0 / bframes=6 / b_pyramid=2 / b_adapt=2 / b_bias=0 / direct=3 / weightb=1 / open_gop=0 / weightp=2 / keyint=250 / keyint_min=22 / scenecut=40 / intra_refresh=0 / rc_lookahead=50 / rc=2pass / mbtree=1 / bitrate=5000 / ratetol=1.0 / qcomp=0.70 / qpmin=10 / qpmax=49 / qpstep=4 / cplxblur=20.0 / qblur=0.5 / vbv_maxrate=9000 / vbv_bufsize=2500 / nal_hrd=none / filler=0 / ip_ratio=1.40 / aq=1:1.00
Language                       : English
Default                        : Yes
Forced                         : No
Audio #1
ID                             : 2
Format                         : AC-3
Format/Info                    : Audio Coding 3
Mode extension                 : CM (complete main)
Format settings, Endianness    : Big
Codec ID                       : A_AC3
Duration                       : 57mn 29s
Bit rate mode                  : Constant
Bit rate                       : 640 Kbps
Channel(s)                     : 6 channels
Channel positions              : Front: L C R, Side: L R, LFE
Sampling rate                  : 48.0 KHz
Frame rate                     : 31.250 fps (1536 spf)
Compression mode               : Lossy
Stream size                    : 263 MiB (11%)
Title                          : DD 5.1 @ 640 Kbps - Amedia
Language                       : Russian
Default                        : Yes
Forced                         : No
Audio #2
ID                             : 3
Format                         : AC-3
Format/Info                    : Audio Coding 3
Mode extension                 : CM (complete main)
Format settings, Endianness    : Big
Codec ID                       : A_AC3
Duration                       : 57mn 29s
Bit rate mode                  : Constant
Bit rate                       : 384 Kbps
Channel(s)                     : 6 channels
Channel positions              : Front: L C R, Side: L R, LFE
Sampling rate                  : 48.0 KHz
Frame rate                     : 31.250 fps (1536 spf)
Compression mode               : Lossy
Stream size                    : 158 MiB (6%)
Title                          : DD 5.1 @ 384 Kbps - Original
Language                       : English
Default                        : No
Forced                         : No
Text #1
ID                             : 4
Format                         : UTF-8
Codec ID                       : S_TEXT/UTF8
Codec ID/Info                  : UTF-8 Plain Text
Duration                       : 56mn 19s
Bit rate                       : 92 bps
Count of elements              : 707
Stream size                    : 38.0 KiB (0%)
Title                          : Full
Language                       : Russian
Default                        : No
Forced                         : No
Text #2
ID                             : 5
Format                         : UTF-8
Codec ID                       : S_TEXT/UTF8
Codec ID/Info                  : UTF-8 Plain Text
Duration                       : 56mn 19s
Bit rate                       : 67 bps
Count of elements              : 747
Stream size                    : 27.7 KiB (0%)
Language                       : English
Default                        : No
Forced                         : No

Скриншоты

Внимание! Раздача ведётся путём добавления новых серий

Внимание! Раздача ведётся путём добавления новых серий; при каждом добавлении создаётся новый торрент. Чтобы начать докачку новой серии, пользователям необходимо сделать следующее:
(1) остановить скачивание,
(2) удалить старый торрент у себя из клиента (старые серии удалять не надо),
(3) скачать новый торрент и запустить его у себя в клиенте вместо старого, при этом указать клиенту путь в старую папку куда и должно происходить скачивание новых серий.
Ваш клиент при этом должен произвести хеширование (проверку) старой папки (если не производит сам - помогите ему сделать это), и будет докачивать только те серии которых у вас ещё нет. Старые серии при этом не удаляются, а продолжают раздаваться!
Eсли вы уже удалили старые серии, то предотвратить повторную закачку старых серий можно, отжав галочку в соответствующих местах при запуске нового торрента. По возможности, желательно не удалять старые серии как можно дольше чтобы релизёр не столько продолжал раздавать старые серии, а смог сконцентрироваться на новых.
Вне форума [Профиль] [ЛС]
Показать сообщения:    
Ответить на тему

Текущее время: Сегодня 04:46

Часовой пояс: GMT + 3



Вы не можете начинать темы
Вы не можете отвечать на сообщения
Вы не можете редактировать свои сообщения
Вы не можете удалять свои сообщения
Вы не можете голосовать в опросах
Вы не можете прикреплять файлы к сообщениям
Вы не можете скачивать файлы