Сегодня идет свободное скачивание без начисления Download

Пространство / Экспансия / The Expanse / Сезон: 1 / Серии: 1-7 из 10 (Роберт Либерман / Robert Lieberman) [2015, Фантастика, детектив, WEB-DL 720p] DVO (Gears Media) + Original

Ответить на тему
 
Автор
Сообщение

Omen ®

Стаж: 5 лет 10 месяцев

Сообщений: 184329

Торрент-статистика

Пост 31-Янв-2016 15:00

[Цитировать]

Пространство / Экспансия / The Expanse
Год выпуска: 2015
Страна: США
Жанр: Фантастика, детектив
Продолжительность: ~ 00:43:00
Перевод: Профессиональный (двухголосый закадровый) Gears Media
Режиссёры: Роберт Либерман / Robert Lieberman
В ролях: Шоре Агдашлу, Кэс Анвар, Уэс Чэтэм, Томас Джейн, Стивен Стрейт, Илайс Туфексис, Джейн Моффат, Сара Митич, Майкл Мюррей, Джо Делфин и др.
Описание: Через двести лет от дня сегодняшнего некий сыщик, привыкший всё доводить до конца при любых обстоятельствах, в рамках расследования дела об исчезновении молодой женщины оказывается на борту звездолета, капитан которого решает помочь детективу в его непростом деле. Величайший заговор в истории человечества гарантируется, как и его непременное раскрытие.
Сэмпл: http://multi-up.com/1079857
Качество: WEB-DL 720p
Формат: MKV
Видео: X264, 1280×720 at 23.976 fps, ~4000 kbps avg
Аудио1: Russian, AC3, 48 kHz, 2 ch, 384 kbps
Аудио2: English, AC3, 48 kHz, 6 ch, 384 kbps
Субтитры: нет

MediaInfo

Format : Matroska
Format version : Version 4 / Version 2
File size : 1.49 GiB
Duration : 44mn 47s
Overall bit rate : 4 773 Kbps
Movie name : The.Expanse.S01E01.720p.WEB-RARBG
Encoded date : UTC 2015-12-17 22:49:54
Writing application : mkvmerge v8.6.1 ('Flying') 64bit
Writing library : libebml v1.3.3 + libmatroska v1.4.4
Video
ID : 1
Format : AVC
Format/Info : Advanced Video Codec
Format profile : High@L3.1
Format settings, CABAC : No
Format settings, ReFrames : 2 frames
Codec ID : V_MPEG4/ISO/AVC
Duration : 44mn 47s
Bit rate : 4 002 Kbps
Width : 1 280 pixels
Height : 720 pixels
Display aspect ratio : 16:9
Frame rate mode : Constant
Frame rate : 23.976 (24000/1001) fps
Color space : YUV
Chroma subsampling : 4:2:0
Bit depth : 8 bits
Scan type : Progressive
Bits/(Pixel*Frame) : 0.181
Stream size : 1.25 GiB (84%)
Language : English
Default : Yes
Forced : No
Color range : Limited
Color primaries : BT.709
Transfer characteristics : BT.709
Matrix coefficients : BT.709
Audio #1
ID : 2
Format : AC-3
Format/Info : Audio Coding 3
Mode extension : CM (complete main)
Format settings, Endianness : Big
Codec ID : A_AC3
Duration : 44mn 47s
Bit rate mode : Constant
Bit rate : 384 Kbps
Channel(s) : 2 channels
Channel positions : Front: L R
Sampling rate : 48.0 KHz
Frame rate : 31.250 fps (1536 spf)
Compression mode : Lossy
Stream size : 123 MiB (8%)
Title : Gears Media
Language : Russian
Default : Yes
Forced : Yes
Audio #2
ID : 3
Format : AC-3
Format/Info : Audio Coding 3
Mode extension : CM (complete main)
Format settings, Endianness : Big
Codec ID : A_AC3
Duration : 44mn 46s
Bit rate mode : Constant
Bit rate : 384 Kbps
Channel(s) : 6 channels
Channel positions : Front: L C R, Side: L R, LFE
Sampling rate : 48.0 KHz
Frame rate : 31.250 fps (1536 spf)
Compression mode : Lossy
Stream size : 123 MiB (8%)
Language : English
Default : No
Forced : No

Скриншоты

Внимание! Раздача ведётся путём добавления новых серий

Внимание! Раздача ведётся путём добавления новых серий; при каждом добавлении создаётся новый торрент. Чтобы начать докачку новой серии, пользователям необходимо сделать следующее:
(1) остановить скачивание,
(2) удалить старый торрент у себя из клиента (старые серии удалять не надо),
(3) скачать новый торрент и запустить его у себя в клиенте вместо старого, при этом указать клиенту путь в старую папку куда и должно происходить скачивание новых серий.
Ваш клиент при этом должен произвести хеширование (проверку) старой папки (если не производит сам - помогите ему сделать это), и будет докачивать только те серии которых у вас ещё нет. Старые серии при этом не удаляются, а продолжают раздаваться!
Eсли вы уже удалили старые серии, то предотвратить повторную закачку старых серий можно, отжав галочку в соответствующих местах при запуске нового торрента. По возможности, желательно не удалять старые серии как можно дольше чтобы релизёр не столько продолжал раздавать старые серии, а смог сконцентрироваться на новых.
Вне форума [Профиль] [ЛС]
Похожие темы
Форум Тема Автор Торрент Отв. Посл. сообщение
./templates/default/images/folder_dl.gif Обучающее видео Центр «Специалист» | Об IP-адресации по-простому (2014) PCRec Omen
2 | 0

0 | 1429

65

2015-03-03 19:29
Omen Последнее
./templates/default/images/folder_dl.gif Кулинария Е.Я. Богуславская (сост.) | Вино, самогон, пиво, настойки, наливки. Варим, гоним, настаиваем. Просто в домашних условиях! (2016) [PDF, EPUB] moralis
1 | 0

0 | 1324

3

2017-09-29 15:24
moralis Последнее
./templates/default/images/folder_dl.gif Фантастика, фэнтези, ужасы, мистика Владимир Стрельников | Простые Оружные Парни (2017) [MP3] }{@R0N
1 | 0

0 | 668

6

2018-01-14 16:43
}{@R0N Последнее
./templates/default/images/folder_dl.gif Психология, Тренинг, Саморазвитие Уильям Макрейвен | Заправляй кровать. 10 простых правил, которые могут изменить твою жизнь и, возможно, весь мир (2018) [FB2] }{@R0N
1 | 0

0 | 2076

6

2018-02-11 21:32
}{@R0N Последнее
Показать сообщения:    
Ответить на тему

Текущее время: Сегодня 05:14

Часовой пояс: GMT + 3



Вы не можете начинать темы
Вы не можете отвечать на сообщения
Вы не можете редактировать свои сообщения
Вы не можете удалять свои сообщения
Вы не можете голосовать в опросах
Вы не можете прикреплять файлы к сообщениям
Вы не можете скачивать файлы