Сегодня идет свободное скачивание без начисления Download

Секретные материалы / The X-Files / Сезон: 10 / Серии: 1-2 из 6 (Крис Картер, Дэрин Морган, Глен Морган) [2016, фантастика, триллер, драма, детектив, SATRip] [Локализованная версия] Dub (ТВ3)

Ответить на тему
 
Автор
Сообщение

Omen ®

Стаж: 6 лет 1 месяц

Сообщений: 184308

Торрент-статистика

Пост 31-Янв-2016 00:00

[Цитировать]

Секретные материалы | The X-Files
Локализованная версия / Полное дублирование- Год выпуска: 2016
Страна: США
Выпущено: 20th Century Fox Television, Ten Thirteen Productions
Жанр: фантастика, триллер, драма, детектив
Продолжительность: ~ 00:42:00-Перевод: Профессиональный (дублированный) ТВ3-Режиссёр: Крис Картер, Дэрин Морган, Глен Морган-В ролях: Дэвид Духовны, Джиллиан Андерсон, Митч Пиледжи, Уильям Б. Дэвис, Робби Амелл, Том Брэйдвуд, Дин Хэглунд, Брюс Харвуд, Джоэл МакХэйл, Лорен Эмброуз-Описание: Специальные агенты ФБР, Фокс Малдер и Дана Скалли, снова работают вместе, чтобы расследовать странные и необъяснимые дела, связанные с паранормальными явлениями.-Доп. информация: Релиз группа: R.G. RiperAM / Автор Rip'а: Taz- --Качество: SATRip
Формат: AVI
Видео: 720x400 (1.80:1), 25 fps, XviD build 50 ~1826 kbps avg, 0.25 bit/pixel
Аудио: 48 kHz, AC3 Dolby Digital, 2/0 (L,R) ch, ~192 kbps-

Список серий

СЕРИЯ 1 - «Моя борьба \ My Struggle»
СЕРИЯ 2 - «Мутация основателя \ Founder's Mutation»
СЕРИЯ 3 - «Малдер и Скалли встречают двуликого монстра \ Mulder and Scully Meet the Were-Monster»
СЕРИЯ 4 - «Снова дом \ Home Again»
СЕРИЯ 5 - «Вавилон \ Babylon»
СЕРИЯ 6 - «Моя борьба II \ My Struggle II»

MediaInfo

ОбщееПолное имя : \The.X-Files.S10.E01.TV3.DUB.SATRip.aviФормат : AVIФормат/Информация : Audio Video InterleaveРазмер файла : 600 МбайтПродолжительность : 41 м.Общий поток : 2029 Кбит/секПрограмма кодирования : VirtualDubMod 1.5.10.3 | www.virtualdub-fr.org || (build 2550/release)Библиотека кодирования : VirtualDubMod build 2550/release
ВидеоИдентификатор : 0Формат : MPEG-4 VisualПрофиль формата : Advanced Simple@L5Параметр BVOP формата : 2Параметр QPel формата : НетПараметр GMC формата : Без точки переходаПараметр матрицы формата : Default (H.263)Идентификатор кодека : XVIDИдентификатор кодека/Подсказка : XviDПродолжительность : 41 м.Битрейт : 1827 Кбит/секШирина : 720 пикселейВысота : 400 пикселейСоотношение сторон : 16:9Частота кадров : 25,000 кадров/секЦветовое пространство : YUVСубдискретизация насыщенности : 4:2:0Битовая глубина : 8 битТип развёртки : ПрогрессивнаяМетод сжатия : С потерямиБит/(Пиксели*Кадры) : 0.254Размер потока : 540 Мбайт (90%)Библиотека кодирования : XviD 1.2.1 (UTC 2008-12-04)
АудиоИдентификатор : 1Формат : AC-3Формат/Информация : Audio Coding 3Расширение режима : CM (complete main)Параметр Endianness формата : BigИдентификатор кодека : 2000Продолжительность : 41 м.Вид битрейта : ПостоянныйБитрейт : 192 Кбит/секКаналы : 2 каналаРасположение каналов : Front: L RЧастота : 48,0 КГцМетод сжатия : С потерямиРазмер потока : 56,8 Мбайт (9%)Выравнивание : Разделение по промежуткамПродолжительность промежутка : 40 мс. (1,00 видеокадр)Время предзагрузки промежутка : 500 мс.
ОбщееПолное имя : \The.X-Files.S10.E02.TV3.DUB.SATRip.aviФормат : AVIФормат/Информация : Audio Video InterleaveРазмер файла : 599 МбайтПродолжительность : 41 м.Общий поток : 2002 Кбит/секПрограмма кодирования : VirtualDubMod 1.5.10.3 | www.virtualdub-fr.org || (build 2550/release)Библиотека кодирования : VirtualDubMod build 2550/release
ВидеоИдентификатор : 0Формат : MPEG-4 VisualПрофиль формата : Advanced Simple@L5Параметр BVOP формата : 2Параметр QPel формата : НетПараметр GMC формата : Без точки переходаПараметр матрицы формата : Default (MPEG)Идентификатор кодека : XVIDИдентификатор кодека/Подсказка : XviDПродолжительность : 41 м.Битрейт : 1800 Кбит/секШирина : 720 пикселейВысота : 400 пикселейСоотношение сторон : 16:9Частота кадров : 25,000 кадров/секЦветовое пространство : YUVСубдискретизация насыщенности : 4:2:0Битовая глубина : 8 битТип развёртки : ПрогрессивнаяМетод сжатия : С потерямиБит/(Пиксели*Кадры) : 0.250Размер потока : 539 Мбайт (90%)Библиотека кодирования : XviD 1.2.1 (UTC 2008-12-04)
АудиоИдентификатор : 1Формат : AC-3Формат/Информация : Audio Coding 3Расширение режима : CM (complete main)Параметр Endianness формата : BigИдентификатор кодека : 2000Продолжительность : 41 м.Вид битрейта : ПостоянныйБитрейт : 192 Кбит/секКаналы : 2 каналаРасположение каналов : Front: L RЧастота : 48,0 КГцМетод сжатия : С потерямиРазмер потока : 57,5 Мбайт (10%)Выравнивание : Разделение по промежуткамПродолжительность промежутка : 40 мс. (1,00 видеокадр)Время предзагрузки промежутка : 500 мс.

Скриншоты


Раздача ведется путем добавления новых серий

Когда раздача ведётся путём добавления новых серий, при каждом добавлении создётся новый торрент. Чтобы начать докачку новой серии, пользователям необходимо сделать следующее:
(1) остановить скачивание,
(2) удалить старый торрент у себя из клиента (старые серии удалять не надо),
(3) скачать новый торрент и запустить его у себя в клиенте вместо старого, при этом указать клиенту путь в старую папку, куда и должно происходить скачивание новых серий.
Ваш клиент при этом должен произвести хеширование (проверку) старой папки (если не производит сам - помогите ему сделать это), и будет докачивать только те серии, которых у вас ещё нет. Старые серии при этом не удаляются, а продолжают раздаваться!
Eсли вы уже удалили старые серии, то предотвратить повторную закачку старых серий можно, отжав галочку в соответсвующих местах при запуске нового торрента. По возможности, желательно не удалять старые серии как можно дольше, чтобы релизёр не столько продолжал раздавать старые серии, а смог сконцентрироваться на новых.
-
Вне форума [Профиль] [ЛС]
Похожие темы
Форум Тема Автор Торрент Отв. Посл. сообщение
./templates/default/images/folder_dl.gif Разное Александр Железняков | Секреты американской космонавтики [2012] [FB2] UndegraundMen
0 | 1

0 | 1156

0

2013-07-26 17:01
UndegraundMen Последнее
./templates/default/images/folder_dl.gif Обучающее видео [Profileschool] | Секреты цветокоррекции слайдов и негативов (2015) PCRec [H.264/1080p] Omen
1 | 0

0 | 1427

27

2015-08-19 13:10
Omen Последнее
./templates/default/images/folder_dl.gif Обучающее видео Сергей Патин | Секреты создания шикарных фотокниг 2.0 (2016) [unpacked] XP1971
1 | 0

0 | 3891

16

2017-06-15 15:26
XP1971 Последнее
./templates/default/images/folder_dl.gif Психология, Тренинг, Саморазвитие Антон Могучий | Развитие интеллекта, внимания, памяти. Секретные методы спецслужб (2018) [PDF] }{@R0N
1 | 0

0 | 600

3

2018-08-09 16:15
}{@R0N Последнее
Показать сообщения:    
Ответить на тему

Текущее время: Сегодня 14:26

Часовой пояс: GMT + 3



Вы не можете начинать темы
Вы не можете отвечать на сообщения
Вы не можете редактировать свои сообщения
Вы не можете удалять свои сообщения
Вы не можете голосовать в опросах
Вы не можете прикреплять файлы к сообщениям
Вы не можете скачивать файлы