Сегодня идет свободное скачивание без начисления Download

Светофор / Traffic Light / Сезон: 1 / Серии 1-13 из 13 (Крис Кох) [2011, комедия, HDTVRip] rus sub

Ответить на тему
 
Автор
Сообщение

Omen ®

Стаж: 5 лет 6 месяцев

Сообщений: 186946

Торрент-статистика

Пост 30-Янв-2016 21:33

[Цитировать]

Светофор / Traffic Light
Год выпуска: 2011
Страна: США
Жанр: комедия
Продолжительность: 21 мин
Перевод: субтитры
Русские субтитры: есть
Субтитры: notabenoid (нормальные)
Режиссёр: Крис Кох
В ролях: Крис Маршалл, Нельсон Фрэнклин, Александра Брекенридж, Девид Денман, Лиза Лапира
Описание: Сериал показывает как дружеские и романтические отношения улучшают – а затем осложняют – жизни людей, которые их любят. Итан – вечный холостяк. Он любит женщин, и если уж он встречается с кем то, то уделяет ей все время – по крайней мере первые три недели. Обаятельный, искренний и безнадежно независимый Итан узнает, что чем старше он становится, тем меньше будет женщин, готовых клюнуть на него. Адам недавно съехался со своей девушкой Келли и открыл для себя огромную разницу между «она часто заходит» и «она живет со мной». Времени для «я» осталось не так уж и много, есть только «мы». Майк – женатый адвокат, который до конца еще не разобрался в отношениях между мужчиной и женщиной. Он лишь хочет быть хорошим мужем для своей жены Лизы и отцом для маленького сына, но и ему нужно хотя бы немного времени для себя. Сейчас он проводит его в своей машине, где смотрит фильмы 15-минутными открывками, говоря жене, что застрял в пробке.

Рейтинг IMDB - 7.3 (743)
Просьба не уходить с раздачи!
Качество: HDTVRip
Формат: AVI
Видео кодек: XviD
Аудио кодек: MP3
Видео: 624x352, 23.976 fps, 1 021 Kbps, 0.194 bit/pixel
Аудио: 128 Kbps, 2 channels, 48.0 KHz

MI

Complete name : F:\Traffic Light\Traffic.Light.S01E01.HDTV.XviD-LOL.avi
Format : AVI
Format/Info : Audio Video Interleave
File size : 175 MiB
Duration : 21mn 39s
Overall bit rate : 1 128 Kbps
Writing application : transcode-1.0.6
Video
ID : 0
Format : MPEG-4 Visual
Format profile : Advanced Simple@L5
Format settings, BVOP : 2
Format settings, QPel : No
Format settings, GMC : No warppoints
Format settings, Matrix : Default (H.263)
Codec ID : XVID
Codec ID/Hint : XviD
Duration : 21mn 39s
Bit rate : 983 Kbps
Width : 624 pixels
Height : 352 pixels
Display aspect ratio : 16:9
Frame rate : 23.976 fps
Color space : YUV
Chroma subsampling : 4:2:0
Bit depth : 8 bits
Scan type : Progressive
Compression mode : Lossy
Bits/(Pixel*Frame) : 0.187
Stream size : 152 MiB (87%)
Writing library : XviD 1.2.1 (UTC 2008-12-04)
Audio
ID : 1
Format : MPEG Audio
Format version : Version 1
Format profile : Layer 3
Mode : Joint stereo
Mode extension : MS Stereo
Codec ID : 55
Codec ID/Hint : MP3
Duration : 21mn 39s
Bit rate mode : Variable
Bit rate : 128 Kbps
Channel(s) : 2 channels
Sampling rate : 48.0 KHz
Compression mode : Lossy
Stream size : 20.5 MiB (12%)
Alignment : Aligned on interleaves
Interleave, duration : 24 ms (0.58 video frame)
Writing library : LAME3.90.
Encoding settings : -m j -V 4 -q 2 -lowpass 17.6 --abr 128

Скриншоты



Вне форума [Профиль] [ЛС]
Похожие темы
Форум Тема Автор Торрент Отв. Посл. сообщение
./templates/default/images/folder_dl.gif Обучающее видео Андрей Жуков | Работа с естественным и импульсным светом в различных условиях (2014) PCRec Omen
1 | 0

0 | 1776

39

2014-11-02 23:59
Omen Последнее
Показать сообщения:    
Ответить на тему

Текущее время: Сегодня 18:41

Часовой пояс: GMT + 3



Вы не можете начинать темы
Вы не можете отвечать на сообщения
Вы не можете редактировать свои сообщения
Вы не можете удалять свои сообщения
Вы не можете голосовать в опросах
Вы не можете прикреплять файлы к сообщениям
Вы не можете скачивать файлы