Сегодня идет свободное скачивание без начисления Download

Мистер Селфридж / Mr. Selfridge / Сезон: 4 / Серии: 1-3 из 10 (Энтони Бирн, Майкл Кейллор, Джон Джонс) [2016, драма, костюмированный, WEB-DLRip] MVO (ViruseProject)

Ответить на тему
 
Автор
Сообщение

Omen ®

Стаж: 5 лет 7 месяцев

Сообщений: 185412

Торрент-статистика

Пост 30-Янв-2016 18:00

[Цитировать]

Мистер Селфридж / Mr. Selfridge
Год выпуска: 2016
Страна: Великобритания
Жанр: Драма, костюмированный
Продолжительность: ~47 мин
Перевод: Профессиональный (многоголосый закадровый) ViruseProject
Субтитры: нет
Режиссеры: Энтони Бирн, Майкл Кейллор, Джон Джонс
В ролях: Джереми Пивен, Сефора Венитес, Том Гудман-Хилл, Аманда Аббингтон, Поппи Ли Фрайер, Кэтерин Келли, Уилл Пэйн, Роанна Кокрейн, Зои Таппер, Дэниэл Чаппл.
Описание: История становления американского предпринимателя Г. Г. Селфриджа. В шестом году двадцатого столетия он впервые посетил Лондон и пришел к выводу, что Англии катастрофически не хватает хороших торговых комплексов. Поэтому в течение трех лет он открывает свой пока единственный торговый центр. Телезрителям дается возможность узреть взлёты и падения революционного бизнесмена, которые длились в течение тех десятков лет.
Качество видео: WEB-DLRip
Формат видео: AVI
Видео: 720x400 (1.80:1), 25 fps, XviD MPEG-4 ~1501 kbps avg, 0.21 bit/pixel
Аудио: 48 kHz, MPEG Layer 3, 2 ch, ~192.00 kbps avg

Внимание! Раздача ведётся путём добавления новых серий

Внимание! Раздача ведётся путём добавления новых серий; при каждом добавлении создаётся новый торрент. Чтобы начать докачку новой серии, пользователям необходимо сделать следующее:
(1) остановить скачивание,
(2) удалить старый торрент у себя из клиента (старые серии удалять не надо),
(3) скачать новый торрент и запустить его у себя в клиенте вместо старого, при этом указать клиенту путь в старую папку куда и должно происходить скачивание новых серий.
Ваш клиент при этом должен произвести хеширование (проверку) старой папки (если не производит сам - помогите ему сделать это), и будет докачивать только те серии которых у вас ещё нет. Старые серии при этом не удаляются, а продолжают раздаваться!
Eсли вы уже удалили старые серии, то предотвратить повторную закачку старых серий можно, отжав галочку в соответствующих местах при запуске нового торрента. По возможности, желательно не удалять старые серии как можно дольше чтобы релизёр не столько продолжал раздавать старые серии, а смог сконцентрироваться на новых.

Ссылка на все раздачи Мистера Селфриджа

MediaInfo

General
Complete name : E:\РЕЛИЗЫ\Mr.Selfridge.S04E01.ViruseProject.avi
Format : AVI
Format/Info : Audio Video Interleave
File size : 544.96 MiB
Duration : 47mn 37s
Overall bit rate : 1 754 Kbps
Writing application : VirtualDubMod 1.5.10.2 (build 2540/release)
Writing library : VirtualDubMod build 2540/release
Video #0
ID : 0
Format : MPEG-4 Visual
Format profile : Advanced Simple@L5
Format settings, BVOP : Yes
Format settings, QPel : No
Format settings, GMC : No warppoints
Format settings, Matrix : Default (H.263)
Muxing mode : Packed bitstream
Codec ID : XVID
Codec ID/Hint : XviD
Duration : 1mn 37s
Bit rate : 1 551 Kbps
Width : 720 pixels
Height : 400 pixels
Display aspect ratio : 16:9
Frame rate : 25.000 fps
Color space : YUV
Chroma subsampling : 4:2:0
Bit depth : 8 bits
Scan type : Progressive
Compression mode : Lossy
Bits/(Pixel*Frame) : 0.215
Stream size : 18.0 MiB (88%)
Writing library : XviD 73
Audio #1
ID : 1
Format : MPEG Audio
Format version : Version 1
Format profile : Layer 3
Mode : Joint stereo
Mode extension : MS Stereo
Codec ID : 55
Codec ID/Hint : MP3
Duration : 1mn 37s
Bit rate mode : Constant
Bit rate : 192 Kbps
Channel(s) : 2 channels
Sampling rate : 48.0 KHz
Compression mode : Lossy
Stream size : 2.23 MiB (11%)
Alignment : Aligned on interleaves
Interleave, duration : 40 ms (1.00 video frame)
Interleave, preload duration : 504 ms

Скриншоты

Вне форума [Профиль] [ЛС]
Показать сообщения:    
Ответить на тему

Текущее время: Сегодня 19:32

Часовой пояс: GMT + 3



Вы не можете начинать темы
Вы не можете отвечать на сообщения
Вы не можете редактировать свои сообщения
Вы не можете удалять свои сообщения
Вы не можете голосовать в опросах
Вы не можете прикреплять файлы к сообщениям
Вы не можете скачивать файлы