Сегодня идет свободное скачивание без начисления Download

Робокоп / Robocop / Сезон: 1 / Серии: 1, 12-22 (22) (Пол Линч / Paul Lynch) [1994, Фантастика, DVDRip-AVC] MVO (OmskBird)

Ответить на тему
 
Автор
Сообщение

Omen ®

Стаж: 5 лет 6 месяцев

Сообщений: 186946

Торрент-статистика

Пост 30-Янв-2016 18:00

[Цитировать]

-Робокоп / Robocop- Год выпуска • 1994
Страна • Канада
Жанр • Фантастика
Озвучание
• Любительский (многоголосый, закадровый) « OmskBird »-Режиссёр • Пол Линч
В ролях • Ричард Иден / Richard Eden, Иветт Нипар / Yvette Nipar, Блю Манкума / Blu Mankuma, Эндреа Рот / Andrea Roth, Дэвид Гарднер / David Gardner, Сэра Кэмпбелл / Sarah Campbell и др.-Описание • Данный сериал является продолжением первых трех оригинальных полнометражных художественных фильмов. Вышел на экраны в 1994 году и просуществовал всего лишь 1 сезон. Зато свет увидело целых 22 серии о приключениях Робота-полицейского.-ПереводАдвокат (1 серия)
Роли озвучивалиПавел Ярощик, Анна Тух, Алексей Гнеушев, Константин Погодаев, Ольга Федорова, Алекс Дьяк и Эльвира Адамова
ЗвукорежиссерПавел Квентов
ПостерКсения Просветова-
Продолжительность: ~ 44 Мин.
Качество: DVDRip-AVC
Формат: MKV
Видео: AVC / 2091 kbps / 640:480p (720:592p - 1 серия) / 25 fps / 4:3 / 0.272 bit/pixel
Аудио:
Русский / AC3 Dolby Digital 2.0 / 44.1 kHz / 192 kbps
- -

Скриншоты

-

MediaInfo


General
General
Unique ID : 231937571201387433061660061423051232525 (0xAE7D8D25F68920BA81E95A6DB55C550D)
Complete name : C:\RoboCop s01 DVDrip (MVO OmskBird)\RoboCop s01e14 DVDrip (MVO OmskBird).mkv
Format : Matroska
Format version : Version 2
File size : 697 MiB
Duration : 42mn 42s
Overall bit rate mode : Variable
Overall bit rate : 2 283 Kbps
Encoded date : UTC 2014-09-09 09:30:45
Writing application : mkvmerge v4.0.0 ('The Stars were mine') сборка от Jun 6 2010 16:18:42
Writing library : libebml v1.0.0 + libmatroska v1.0.0
Video
ID : 1
Format : AVC
Format/Info : Advanced Video Codec
Format profile : Baseline@L3.0
Format settings, CABAC : No
Format settings, ReFrames : 1 frame
Format settings, GOP : M=1, N=12
Codec ID : V_MPEG4/ISO/AVC
Duration : 42mn 42s
Bit rate mode : Variable
Bit rate : 2 045 Kbps
Maximum bit rate : 3 000 Kbps
Width : 640 pixels
Height : 480 pixels
Display aspect ratio : 4:3
Frame rate mode : Constant
Frame rate : 25.000 fps
Original frame rate : 24.000 fps
Color space : YUV
Chroma subsampling : 4:2:0
Bit depth : 8 bits
Scan type : Progressive
Bits/(Pixel*Frame) : 0.266
Stream size : 625 MiB (90%)
Default : Yes
Forced : No
Audio
ID : 2
Format : AC-3
Format/Info : Audio Coding 3
Mode extension : CM (complete main)
Format settings, Endianness : Big
Codec ID : A_AC3
Duration : 42mn 42s
Bit rate mode : Constant
Bit rate : 192 Kbps
Channel(s) : 2 channels
Channel positions : Front: L R
Sampling rate : 44.1 KHz
Bit depth : 16 bits
Compression mode : Lossy
Stream size : 58.7 MiB (8%)
Language : Russian
Default : Yes
Forced : No

Внимание! Раздача ведётся путём добавления новых серий!

Внимание! Раздача ведётся путём добавления новых серий; при каждом добавлении создётся новый торрент. Чтобы начать докачку новой серии, пользователям необходимо сделать следующее:
(1) остановить скачивание,
(2) удалить старый торрент у себя из клиента (старые серии удалять не надо),
(3) скачать новый торрент и запустить его у себя в клиенте вместо старого, при этом указать клиенту путь в старую папку куда и должно происходить скачивание новых серий.
Ваш клиент при этом должен произвести хеширование (проверку) старой папки (если не производит сам - помогите ему сделать это), и будет докачивать только те серии которых у вас ещё нет. Старые серии при этом не удаляются, а продолжают раздаваться!
Eсли вы уже удалили старые серии, то предотвратить повторную закачку старых серий можно, отжав галочку в соответсвующих местах при запуске нового торрента.
Вне форума [Профиль] [ЛС]
Показать сообщения:    
Ответить на тему

Текущее время: Сегодня 01:27

Часовой пояс: GMT + 3



Вы не можете начинать темы
Вы не можете отвечать на сообщения
Вы не можете редактировать свои сообщения
Вы не можете удалять свои сообщения
Вы не можете голосовать в опросах
Вы не можете прикреплять файлы к сообщениям
Вы не можете скачивать файлы