Сегодня идет свободное скачивание без начисления Download

Бешеные псы / Mad Dogs / Сезон: 1 / Серии: 1-5 из 10 (Чарльз МакДугалл, Ута Бризвитц, Джон Дэвид Коулз) [2016 г., Драма, комедия, криминал, WEBRip 720p] MVO (Jaskier) + Original

Ответить на тему
 
Автор
Сообщение

Omen ®

Стаж: 5 лет 9 месяцев

Сообщений: 184433

Торрент-статистика

Пост 30-Янв-2016 15:00

[Цитировать]

Бешеные псы / Mad Dogs- Оригинальное название: Mad Dogs
Русское название: Бешеные псы
Год выпуска: 2016
Страна: США
Жанр: Драма, комедия, криминал
Продолжительность: ~00:45:00-00:60:00-Перевод: Профессиональный (многоголосый закадровый) Студия Jaskier ненормативная лексика 18+
Субтитры: Нет-Режиссёр: Чарльз МакДугалл, Ута Бризвитц, Джон Дэвид Коулз-В ролях: Бен Чаплин, Майкл Империоли, Романи Малко, Стив Зан, Рэйчел Холмс, Мария Ботто, Адриа Теннор, Эллисон Толман, Джоди Смит-Описание: Сериал рассказывает о мужчинах, которые дружили со школьной скамьи. Герои были не разлей вода, но со временем они стали менее близки. Через некоторое время приятели решили снова встретиться и хорошо провести выходные. И вот в один прекрасный отпуск, который они мечтали сделать волшебным, происходит настоящая криминальная история. Друзья выбрали один фешенебельный курорт. Но как-то не срослось. Все пошло наперекосяк. Их впереди ждала череда неприятных событий. Мужчины стали вспоминать прошлое, вспомнили школьные обиды. А это в свою очередь вызвало ложь, интриги, что привело к убийству. Что же произошло? Смогут ли друзья это все пережить и продолжить общение? Все это вы узнаете, если посмотрите сериал «Бешенные псы».-Сэмпл-Качество: WEBRip 720p
Формат: MKV
Видео кодек: h.264
Аудио кодек: AC3
Видео: AVC, 1280x720 (16:9), 23.976 fps, ~5600 kbps, ~0.258 bit/pixel-Аудио 1: Dolby AC3 48000Hz stereo 192Kbps Русский
Аудио 2: Dolby AC3 48000Hz 6ch 384Kbps Оригинал (Английский)-

MediaInfo

Код:
General
Unique ID                   : 254263343394884416527403434229841973773 (0xBF4956B3C299509F9643E6F986D2D20D)
Complete name               : Z:\HD\Mad Dogs US. Season 1 (WEBRip l 720p l Jaskier)\Mad.Dogs.US.S01E01.Pilot.720p.AMZN.WEBRip.DD5.1.x264-Jaskier.mkv
Format                      : Matroska
Format version              : Version 1
File size                   : 2.63 GiB
Duration                    : 56mn 34s
Overall bit rate            : 6 658 Kbps
Encoded date                : UTC 2016-01-30 09:46:39
Writing application         : mkvmerge v2.3.0 ('Freak U') built on Sep  8 2008 18:32:16
Writing library             : libebml v0.7.7 + libmatroska v0.8.1
Video
ID                          : 1
Format                      : AVC
Format/Info                 : Advanced Video Codec
Format profile              : High@L4.1
Format settings, CABAC      : Yes
Format settings, ReFrames   : 9 frames
Codec ID                    : V_MPEG4/ISO/AVC
Duration                    : 56mn 34s
Bit rate                    : 5 694 Kbps
Width                       : 1 280 pixels
Height                      : 720 pixels
Display aspect ratio        : 16:9
Frame rate mode             : Constant
Frame rate                  : 23.976 fps
Color space                 : YUV
Chroma subsampling          : 4:2:0
Bit depth                   : 8 bits
Scan type                   : Progressive
Bits/(Pixel*Frame)          : 0.258
Stream size                 : 2.25 GiB (86%)
Writing library             : x264 core 144 r2525 40bb568
Encoding settings           : cabac=1 / ref=9 / deblock=1:-3:-3 / analyse=0x3:0x133 / me=umh / subme=10 / psy=1 / psy_rd=1.00:0.00 / mixed_ref=1 / me_range=48 / chroma_me=1 / trellis=2 / 8x8dct=1 / cqm=0 / deadzone=21,11 / fast_pskip=1 / chroma_qp_offset=-2 / threads=12 / lookahead_threads=2 / sliced_threads=0 / nr=0 / decimate=1 / interlaced=0 / bluray_compat=0 / constrained_intra=0 / bframes=8 / b_pyramid=2 / b_adapt=2 / b_bias=0 / direct=3 / weightb=1 / open_gop=0 / weightp=2 / keyint=250 / keyint_min=23 / scenecut=40 / intra_refresh=0 / rc=crf / mbtree=0 / crf=16.0 / qcomp=0.60 / qpmin=0 / qpmax=69 / qpstep=4 / ip_ratio=1.30 / pb_ratio=1.20 / aq=3:0.70
Language                    : English
Default                     : Yes
Forced                      : No
Audio #1
ID                          : 2
Format                      : AC-3
Format/Info                 : Audio Coding 3
Mode extension              : CM (complete main)
Format settings, Endianness : Big
Codec ID                    : A_AC3
Duration                    : 56mn 34s
Bit rate mode               : Constant
Bit rate                    : 192 Kbps
Channel(s)                  : 2 channels
Channel positions           : Front: L R
Sampling rate               : 48.0 KHz
Compression mode            : Lossy
Stream size                 : 77.7 MiB (3%)
Language                    : Russian
Default                     : Yes
Forced                      : No
Audio #2
ID                          : 3
Format                      : AC-3
Format/Info                 : Audio Coding 3
Mode extension              : CM (complete main)
Format settings, Endianness : Big
Codec ID                    : A_AC3
Duration                    : 56mn 34s
Bit rate mode               : Constant
Bit rate                    : 640 Kbps
Channel(s)                  : 6 channels
Channel positions           : Front: L C R, Side: L R, LFE
Sampling rate               : 48.0 KHz
Compression mode            : Lossy
Stream size                 : 259 MiB (10%)
Language                    : English
Default                     : No
Forced                      : No
Text
ID                          : 4
Format                      : UTF-8
Codec ID                    : S_TEXT/UTF8
Codec ID/Info               : UTF-8 Plain Text
Language                    : English
Default                     : No
Forced                      : No

Скриншоты



Ссылка на предыдущие и альтернативные раздачи

Внимание! Раздача ведётся путём добавления новых серий

Внимание! Раздача ведётся путём добавления новых серий; при каждом добавлении создаётся новый торрент. Чтобы начать докачку новой серии, пользователям необходимо сделать следующее:
(1) остановить скачивание,
(2) удалить старый торрент у себя из клиента (старые серии удалять не надо),
(3) скачать новый торрент и запустить его у себя в клиенте вместо старого, при этом указать клиенту путь в старую папку куда и должно происходить скачивание новых серий.
Ваш клиент при этом должен произвести хеширование (проверку) старой папки (если не производит сам - помогите ему сделать это), и будет докачивать только те серии которых у вас ещё нет. Старые серии при этом не удаляются, а продолжают раздаваться!
Eсли вы уже удалили старые серии, то предотвратить повторную закачку старых серий можно, отжав галочку в соответствующих местах при запуске нового торрента. По возможности, желательно не удалять старые серии как можно дольше чтобы релизёр не столько продолжал раздавать старые серии, а смог сконцентрироваться на новых.
Вне форума [Профиль] [ЛС]
Показать сообщения:    
Ответить на тему

Текущее время: Сегодня 10:07

Часовой пояс: GMT + 3



Вы не можете начинать темы
Вы не можете отвечать на сообщения
Вы не можете редактировать свои сообщения
Вы не можете удалять свои сообщения
Вы не можете голосовать в опросах
Вы не можете прикреплять файлы к сообщениям
Вы не можете скачивать файлы