Сегодня идет свободное скачивание без начисления Download

Чокнутая Бывшая / Crazy Ex-Girlfriend / Сезон: 1 / Серии: 1-9 из 18 (Марк Уэбб) [2015, комедия, мюзикл, WEB-DL 720p] Original + Sub Rus + Sub Eng

Ответить на тему
 
Автор
Сообщение

Omen ®

Стаж: 5 лет 11 месяцев

Сообщений: 184329

Торрент-статистика

Пост 30-Янв-2016 12:00

[Цитировать]

Чокнутая Бывшая / Crazy Ex-Girlfriend Год выпуска: 2015
Страна: США
Жанр: комедия, мюзикл
Продолжительность: ~ 00:40:00
Перевод: Субтитры-Режиссёр: Марк Уэбб-В ролях: Рэйчел Блум, Винсент Родригес, Донна Линн Чамплин, Сантино Фонтана, Эшли Фусс, Джина Гальего, Исаак Джэллего, Джейден Геллер, Тара Брук, Ник Драго, Аррон Фентон и др.-Описание: Жительница Нью-Йорка Ребекка Банч - образованная, успешная и целеустремленная, но очень одинокая молодая женщина. Как-то раз Ребекка повстречала на улице свою школьную любовь — Джоша, которого не видела десять лет. Прежние чувства вспыхнули в девушке с новой силой, и она решилась на безумный поступок: бросив перспективную работу в преуспевающей юридической конторе и элитную квартиру в престижном районе Манхэттена, она отправилась из Нью-Йорка в Уэст-Ковину, штат Калифорния, где живет ее бывший парень. Ребекка рассчитывала окунуться в океан страстей, почувствовать настоящую романтику и обрести долгожданную любовь. Однако сначала ей, обитательнице мегаполиса, придется столкнуться с жизненными реалиями маленького провинциального городка, откуда до ближайшего пляжа — два часа пути и четыре часа пробок.-Качество: WEB-DL 720p
Формат: MKV
Видео кодек: H.264
Аудио кодек: AC3
Видео: 1280x720 (16:9), 23.976 fps, ~4000 kbps avg
Аудио: 48 kHz, AC3, 6 ch, ~384.00 kbps avg Original
Субтитры: Русские, Английские-Перевод: Группа вконтакте @cw_crazy_exgirlfriend-Сэмпл / TVRAGE / TV.com / IMDB / КиноПоиск-

MediaInfo

Код:
Общее
Уникальный идентификатор                 : 185441436830412652597162203975811005937 (0x8B82B8BB938E532799A37636BF12FDF1)
Полное имя                               : D:\НБФ\19456\Crazy.Ex-Girlfriend.S01.WEB-DL.720p.Sub.Rus.Eng-alekartem\Crazy.Ex-Girlfriend.S01E04.WEB-DL.720p.Sub.Rus.Eng-alekartem.mkv
Формат                                   : Matroska
Версия формата                           : Version 4 / Version 2
Размер файла                             : 1,30 Гбайт
Продолжительность                        : 42 м.
Общий поток                              : 4441 Кбит/сек
Дата кодирования                         : UTC 2015-12-05 16:06:24
Программа кодирования                    : mkvmerge v8.5.2 ('Crosses') 32bit
Библиотека кодирования                   : libebml v1.3.3 + libmatroska v1.4.4
Attachements                             : Cover.png
DURATION                                 : 00:41:33.569000000
NUMBER_OF_FRAMES                         : 869
NUMBER_OF_BYTES                          : 49207
_STATISTICS_WRITING_APP                  : mkvmerge v8.5.2 ('Crosses') 32bit
_STATISTICS_WRITING_DATE_UTC             : 2015-12-05 16:06:24
_STATISTICS_TAGS                         : BPS DURATION NUMBER_OF_FRAMES NUMBER_OF_BYTES
Видео
Идентификатор                            : 1
Формат                                   : AVC
Формат/Информация                        : Advanced Video Codec
Профиль формата                          : High@L3.1
Параметр CABAC формата                   : Нет
Параметр ReFrames формата                : 2 кадра
Идентификатор кодека                     : V_MPEG4/ISO/AVC
Продолжительность                        : 42 м.
Битрейт                                  : 3969 Кбит/сек
Ширина                                   : 1280 пикселей
Высота                                   : 720 пикселей
Соотношение сторон                       : 16:9
Режим частоты кадров                     : Постоянный
Частота кадров                           : 23,976 кадра/сек
Цветовое пространство                    : YUV
Субдискретизация насыщенности            : 4:2:0
Битовая глубина                          : 8 бит
Тип развёртки                            : Прогрессивная
Бит/(Пиксели*Кадры)                      : 0.180
Размер потока                            : 1,17 Гбайт (89%)
Язык                                     : English
Default                                  : Да
Forced                                   : Нет
Цветовой диапазон                        : Limited
Основные цвета                           : BT.709
Характеристики трансфера                 : BT.709
Коэффициенты матрицы                     : BT.709
Аудио
Идентификатор                            : 2
Формат                                   : AC-3
Формат/Информация                        : Audio Coding 3
Расширение режима                        : CM (complete main)
Параметр Endianness формата              : Big
Идентификатор кодека                     : A_AC3
Продолжительность                        : 42 м.
Вид битрейта                             : Постоянный
Битрейт                                  : 384 Кбит/сек
Каналы                                   : 6 каналов
Расположение каналов                     : Front: L C R, Side: L R, LFE
Частота                                  : 48,0 КГц
Битовая глубина                          : 16 бит
Метод сжатия                             : С потерями
Размер потока                            : 115 Мбайт (9%)
Язык                                     : English
Default                                  : Да
Forced                                   : Нет
Текст #1
Идентификатор                            : 3
Формат                                   : UTF-8
Идентификатор кодека                     : S_TEXT/UTF8
Идентификатор кодека/Информация          : UTF-8 Plain Text
Заголовок                                : Notabenoid
Язык                                     : Russian
Default                                  : Да
Forced                                   : Нет
Текст #2
Идентификатор                            : 4
Формат                                   : UTF-8
Идентификатор кодека                     : S_TEXT/UTF8
Идентификатор кодека/Информация          : UTF-8 Plain Text
Язык                                     : English
Default                                  : Нет
Forced                                   : Нет

Скриншоты

Внимание! Раздача ведется путем добавления новых серий

Внимание! Раздача ведётся путём добавления новых серий; при каждом добавлении создаётся новый торрент. Чтобы начать докачку новой серии, пользователям необходимо сделать следующее:
(1) остановить скачивание,
(2) удалить старый торрент-файл у себя из клиента (старые серии удалять не надо),
(3) скачать новый торрент-файл из раздачи и запустить его у себя в клиенте вместо старого, при этом указать клиенту путь в старую папку, куда и должно происходить скачивание новых серий.
Ваш клиент при этом должен произвести хеширование (проверку) старой папки (если не производит сам - помогите ему сделать это), и будет докачивать только те серии, которых у Вас ещё нет. Старые серии при этом не удаляются, а продолжают раздаваться!
Eсли Вы уже посмотрели и удалили старые серии, то предотвратить повторную закачку старых серий можно, сняв галочки в соответсвующих местах при запуске нового торрента. По возможности, желательно не удалять старые серии как можно дольше чтобы релизёр не столько продолжал раздавать старые серии, сколько сконцентрироваться на новых.
Вне форума [Профиль] [ЛС]
Показать сообщения:    
Ответить на тему

Текущее время: Сегодня 02:07

Часовой пояс: GMT + 3



Вы не можете начинать темы
Вы не можете отвечать на сообщения
Вы не можете редактировать свои сообщения
Вы не можете удалять свои сообщения
Вы не можете голосовать в опросах
Вы не можете прикреплять файлы к сообщениям
Вы не можете скачивать файлы