Сегодня идет свободное скачивание без начисления Download

Колония / Colony / Сезон: 1 / Серии: 1-3 из 10 (Хуан Хосе Кампанелла) [2016, драма, фантастика, HDTVRip-AVC] Original + Rus Subs (N-Team) + Eng Subs

Ответить на тему
 
Автор
Сообщение

Omen ®

Стаж: 5 лет 9 месяцев

Сообщений: 184393

Торрент-статистика

Пост 30-Янв-2016 03:33

[Цитировать]

Колония / Colony
Год выпуска: 2016
Страна: США
Жанр: драма, фантастика
Продолжительность: ~42 минуты
Перевод: Субтитры N-Team
Режиссёр: Хуан Хосе Кампанелла
В ролях: Джош Холлоуэй, Сара Уэйн Кэллис, Питер Джекобсон, Аманда Ригетти, Алекс Нюстадтер, Изабелла Крамп, Гонсало Менендес, Ким Родс
Описание: В ближайшем будущем семья пытается спасти жителей оккупированного пришельцами Лос-Анджелеса. Бывший агент ФБР Уилл Боумэн и его супруга Кейти пробуют вернуть сына.
Уилл готов работать на новое правительство, тогда как многие в городе поддерживают повстанцев. Лидер режима Снайдер предлагает Уиллу сделку, которая изменит их жизнь и заставит семью пойти на большой риск.
Сэмпл: http://multi-up.com/1085869
Качество: HDTVRip-AVC
Формат: MP4
Видео: AVC, 720x404 (16:9), 23.976 fps, 1062 kbps, 0.152 bit/pixel
Аудио: AAC, 48 KHz, 2 ch, 132 kbps [Eng]
Субтитры: софтсаб(SRT), русские, английские

Список серий

1. Pilot / Пилотная серия
2. Brave New World / О дивный новый мир
3. 98 Seconds / 98 секунд

MediaInfo

General
Complete name : D:\Видео\Colony Season 1 [N-Team]\Colony.S01E01.mp4
Format : MPEG-4
Format profile : Base Media
Codec ID : isom
File size : 420 MiB
Duration : 49mn 1s
Overall bit rate mode : Variable
Overall bit rate : 1 198 Kbps
Encoded date : UTC 2016-01-02 01:58:17
Tagged date : UTC 2016-01-02 01:58:17
Video
ID : 2
Format : AVC
Format/Info : Advanced Video Codec
Format profile : High@L3.1
Format settings, CABAC : Yes
Format settings, ReFrames : 5 frames
Codec ID : avc1
Codec ID/Info : Advanced Video Coding
Duration : 49mn 1s
Source duration : 49mn 1s
Bit rate : 1 062 Kbps
Maximum bit rate : 7 331 Kbps
Width : 720 pixels
Height : 404 pixels
Display aspect ratio : 16:9
Frame rate mode : Constant
Frame rate : 23.976 fps
Color space : YUV
Chroma subsampling : 4:2:0
Bit depth : 8 bits
Scan type : Progressive
Bits/(Pixel*Frame) : 0.152
Stream size : 372 MiB (89%)
Source stream size : 372 MiB (89%)
Writing library : x264 core 148 r2638 7599210
Encoding settings : cabac=1 / ref=5 / deblock=1:0:0 / analyse=0x3:0x113 / me=umh / subme=8 / psy=1 / psy_rd=1.00:0.00 / mixed_ref=1 / me_range=16 / chroma_me=1 / trellis=1 / 8x8dct=1 / cqm=0 / deadzone=21,11 / fast_pskip=1 / chroma_qp_offset=-2 / threads=13 / lookahead_threads=2 / sliced_threads=0 / nr=0 / decimate=1 / interlaced=0 / bluray_compat=0 / constrained_intra=0 / bframes=3 / b_pyramid=2 / b_adapt=2 / b_bias=0 / direct=3 / weightb=1 / open_gop=0 / weightp=2 / keyint=250 / keyint_min=23 / scenecut=40 / intra_refresh=0 / rc_lookahead=50 / rc=crf / mbtree=1 / crf=19.0 / qcomp=0.60 / qpmin=0 / qpmax=69 / qpstep=4 / ip_ratio=1.40 / aq=1:1.00
Encoded date : UTC 2016-01-02 01:10:50
Tagged date : UTC 2016-01-02 01:58:18
Matrix coefficients : BT.709
Color range : Limited
Audio
ID : 1
Format : AAC
Format/Info : Advanced Audio Codec
Format profile : LC
Codec ID : 40
Duration : 49mn 1s
Bit rate mode : Variable
Bit rate : 132 Kbps
Maximum bit rate : 179 Kbps
Channel(s) : 2 channels
Channel positions : Front: L R
Sampling rate : 48.0 KHz
Compression mode : Lossy
Stream size : 46.2 MiB (11%)
Encoded date : UTC 2016-01-02 01:58:17
Tagged date : UTC 2016-01-02 01:58:18

Скриншоты

Внимание! Раздача ведётся путём добавления новых серий

Внимание! Раздача ведётся путём добавления новых серий; при каждом добавлении создётся новый торрент. Чтобы начать докачку новой серии, пользователям необходимо сделать следующее:
-Остановить скачивание.
-Удалить старый торрент у себя из клиента (старые серии удалять не надо).
-Скачать новый торрент и запустить его у себя в клиенте вместо старого, при этом указать клиенту путь в старую папку куда и должно происходить скачивание новых серий.
Ваш клиент при этом должен произвести хеширование (проверку) старой папки (если не производит сам - помогите ему сделать это), и будет докачивать только те серии которых у вас ещё нет. Старые серии при этом не удаляются, а продолжают раздаваться!
Если вы уже удалили старые серии, то предотвратить повторную закачку старых серий можно, отжав галочку в соответствующих местах при запуске нового торрента. По возможности, желательно не удалять старые серии как можно дольше чтобы релизёр не столько продолжал раздавать старые серии, а смог сконцентрироваться на новых.
Внимание: Добавлена 3 серия
Вне форума [Профиль] [ЛС]
Похожие темы
Форум Тема Автор Торрент Отв. Посл. сообщение
./templates/default/images/folder_dl.gif Фантастика, фэнтези, ужасы, мистика Владимир Мясоедов | Первая колония (2017) [FB2] }{@R0N
1 | 0

0 | 19728

10

2017-07-23 21:36
}{@R0N Последнее
Показать сообщения:    
Ответить на тему

Текущее время: Сегодня 23:32

Часовой пояс: GMT + 3



Вы не можете начинать темы
Вы не можете отвечать на сообщения
Вы не можете редактировать свои сообщения
Вы не можете удалять свои сообщения
Вы не можете голосовать в опросах
Вы не можете прикреплять файлы к сообщениям
Вы не можете скачивать файлы