Сегодня идет свободное скачивание без начисления Download

Форс-мажоры / Костюмы в законе / Suits / Сезон: 5 / Серии: 1-11 из 16 (Кевин Брэй, Джон Скотт) [2015, Драма, комедия, WEB-DL 1080p] DVO (NewStudio) + Original

Ответить на тему
 
Автор
Сообщение

Omen ®

Стаж: 5 лет 9 месяцев

Сообщений: 184433

Торрент-статистика

Пост 30-Янв-2016 03:00

[Цитировать]

Форс-мажоры / Костюмы в законе / Suits- Год выпуска: 2015
Страна: США / USA Network
Жанр: Драма, комедия
Продолжительность: ~ 00:42:00-Перевод: Профессиональный (двухголосый закадровый) | NewStudio
Субтитры: отсутствуют-Режиссёр: Кевин Брэй, Джон Скотт-В ролях: Патрик Дж. Адамс, Гэбриел Махт, Меган Маркл, Джина Торрес, Рик Хоффман-Описание: В центре сюжета замечательный, но немотивированный молодой человек, так и не закончивший учебу в колледже. У него есть все необходимые качества, чтобы стать хорошим адвокатом, кроме диплома. Но благодаря знаниям законов улицы и напористым, не всегда честным действиям его нанимает влиятельная юридическая фирма из Манхэттена.-Релиз:
Перевод: Ptyza
Постер: Vortex-- -Качество: WEB-DL 1080p
Контейнер: MKV
Видео: 1920x1080 (16:9), MPEG-4 AVC, 23.976 fps, ~4954 kbps avg, 0.100 bit/pixel
Аудио Rus: 48 kHz, AC3, 3/2 (L,C,R,l,r) + LFE ch, 384 kbps | NewStudio
Аудио Eng: 48 kHz, AC3, 3/2 (L,C,R,l,r) + LFE ch, 384 kbps-

Список серий

01. Отрицание / Denial
02. Компенсация / Compensation
03. Таблеток больше не будет / No Refills
04. Ничего не выйдет / No Puedo Hacerlo
05. Лицом к лицу / Toe to Toe
06. Конфиденциальность / Privilege
07. За живое / Hitting Home
08. Моя вина / Mea Culpa
09. Незваные гости / Uninvited Guests
10. Вера / Faith
-

MediaInfo

Уникальный идентификатор : 188589928715472228802923852782656453993 (0x8DE1195E1CE42451B753096984C67D69)Полное имя : G:\Movies\Suits (Season 5) 1080p WEB-DL\Suits.s05e01.1080p.WEBDL.NewStudio.TV.mkvФормат : MatroskaВерсия формата : Version 4 / Version 2Размер файла : 1,72 ГбайтПродолжительность : 42 м.Общий поток : 5838 Кбит/секДата кодирования : UTC 2015-06-25 16:29:58Программа кодирования : mkvmerge v8.0.0 ('Til The Day That I Die') 32bitБиблиотека кодирования : libebml v1.3.1 + libmatroska v1.4.2DURATION : 00:42:07.008000000NUMBER_OF_FRAMES : 78969NUMBER_OF_BYTES : 121296384_STATISTICS_WRITING_APP : mkvmerge v8.0.0 ('Til The Day That I Die') 32bit_STATISTICS_WRITING_DATE_UTC : 2015-06-25 16:29:58_STATISTICS_TAGS : BPS DURATION NUMBER_OF_FRAMES NUMBER_OF_BYTES
ВидеоИдентификатор : 1Формат : AVCФормат/Информация : Advanced Video CodecПрофиль формата : High@L4Параметр CABAC формата : ДаПараметр ReFrames формата : 4 кадраИдентификатор кодека : V_MPEG4/ISO/AVCПродолжительность : 42 м.Битрейт : 4954 Кбит/секШирина : 1920 пикселейВысота : 1080 пикселейСоотношение сторон : 16:9Режим частоты кадров : ПостоянныйЧастота кадров : 23,976 кадра/секЦветовое пространство : YUVСубдискретизация насыщенности : 4:2:0Битовая глубина : 8 битТип развёртки : ПрогрессивнаяБит/(Пиксели*Кадры) : 0.100Размер потока : 1,46 Гбайт (85%)Язык : EnglishDefault : ДаForced : Нетcolour_range : LimitedОсновные цвета : BT.709Характеристики трансфера : BT.709Коэффициенты матрицы : BT.709
Аудио #1Идентификатор : 2Формат : AC-3Формат/Информация : Audio Coding 3Расширение режима : CM (complete main)Параметр Endianness формата : BigИдентификатор кодека : A_AC3Продолжительность : 42 м.Вид битрейта : ПостоянныйБитрейт : 384 Кбит/секКаналы : 6 каналовРасположение каналов : Front: L C R, Side: L R, LFEЧастота : 48,0 КГцБитовая глубина : 16 битМетод сжатия : С потерямиРазмер потока : 116 Мбайт (7%)Заголовок : NewStudio.TVЯзык : RussianDefault : ДаForced : Нет
Аудио #2Идентификатор : 3Формат : AC-3Формат/Информация : Audio Coding 3Расширение режима : CM (complete main)Параметр Endianness формата : BigИдентификатор кодека : A_AC3Продолжительность : 42 м.Вид битрейта : ПостоянныйБитрейт : 384 Кбит/секКаналы : 6 каналовРасположение каналов : Front: L C R, Side: L R, LFEЧастота : 48,0 КГцБитовая глубина : 16 битМетод сжатия : С потерямиРазмер потока : 116 Мбайт (7%)Язык : EnglishDefault : НетForced : Нет
ТекстИдентификатор : 4Формат : ASSИдентификатор кодека : S_TEXT/ASSИдентификатор кодека/Информация : Advanced Sub Station AlphaМетод сжатия : Без потерьЯзык : RussianDefault : ДаForced : Нет
-

Скриншоты

-

Внимание! Раздача ведётся путём добавления новых серий!

Внимание! Раздача ведётся путём добавления новых серий; при каждом добавлении создётся новый торрент. Чтобы начать докачку новой серии, пользователям необходимо сделать следующее: (1) остановить скачивание, (2) удалить старый торрент у себя из клиента (старые серии удалять не надо), (3) скачать новый торрент и запустить его у себя в клиенте вместо старого, при этом указать клиенту путь в старую папку куда и должно происходить скачивание новых серий.
Ваш клиент при этом должен произвести хеширование (проверку) старой папки (если не производит сам - помогите ему сделать это), и будет докачивать только те серии которых у вас ещё нет. Старые серии при этом не удаляются, а продолжают раздаваться!
Eсли вы уже удалили старые серии, то предотвратить повторную закачку старых серий можно, отжав галочку в соответсвующих местах при запуске нового торрента.-
Вне форума [Профиль] [ЛС]
Показать сообщения:    
Ответить на тему

Текущее время: Сегодня 03:13

Часовой пояс: GMT + 3



Вы не можете начинать темы
Вы не можете отвечать на сообщения
Вы не можете редактировать свои сообщения
Вы не можете удалять свои сообщения
Вы не можете голосовать в опросах
Вы не можете прикреплять файлы к сообщениям
Вы не можете скачивать файлы