Сегодня идет свободное скачивание без начисления Download

Хроники Шаннары / The Shannara Chronicles / Сезон: 1 / Серии: 1-5 из 10 (Брэд Тернер, Джонатан Либесман, Джеймс Маршалл) [2016, Фэнтези, приключения, HDTVRip 720p] MVO (Jaskier) + Original

Ответить на тему
 
Автор
Сообщение

Omen ®

Стаж: 5 лет 11 месяцев

Сообщений: 184329

Торрент-статистика

Пост 30-Янв-2016 03:00

[Цитировать]

Хроники Шаннары / The Shannara Chronicles- Оригинальное название: The Shannara Chronicles
Русское название: Хроники Шаннары
Год выпуска: 2016
Страна: США
Жанр: Фэнтези, приключения
Продолжительность: ~00:40:00-Перевод: Профессиональный (многоголосый закадровый) Студия Jaskier
Субтитры: Нет-Режиссёр: Брэд Тернер, Джонатан Либесман, Джеймс Маршалл-В ролях: Ивана Бакеро, Дэниэл МакФерсон, Джон Рис-Дэвис, Маркус Ванко, Брук Уильямс, Ману Беннетт, Остин Роберт Батлер, Поппи Дрейтон, Аарон Якубенко и др.-Описание: Фэнтезийный сериал Хроники Шаннары в 1 сезоне знакомит зрителей с постапокалиптическим миром. Земли в традиционном понимании уже нет. Конец XXI века стал фатальным для человечества. Сейчас уже неважно, что именно послужило причиной гибели внушительной части населения, последствия необратимы. Северная Америка как территория уцелела, но она теперь является разделенной на четыре огромных сектора. В каждом обосновалась отдельная раса.
Одна из территорий принадлежит выжившим людям, на другой обосновались эльфы. Две оставшиеся достались дворфам и троллям соответственно. Не всегда удается мирно и дружелюбно сосуществовать столь сильно отличающимся соседям. Нередки случаи возникновения конфликтов, которые стороны стараются пока улаживать без кровопролитий. Однако, баланс сил и стремление к невмешательству в дела другой расы непостоянные и очень ненадежные вещи. Рано или поздно перемирие может быть нарушенным и тогда не избежать серьезных последствий.
Ключевая роль в сериале отведена потомкам славного рода Шаннара. Эти эльфы появились в незапамятные времена и неоднократно доказывали свою воинскую доблесть и необычайную мудрость. Не все спокойно на территории эльфов. С недавних пор у них началась полоса необычных событий. Одной из главных проблем стало нападение странного существа. Огромного зверя сложно отнести к любому из известных видов. Откуда он появился, остается загадкой.-Сэмпл-Качество: HDTVRip 720p
Формат: MKV
Видео кодек: h.264
Аудио кодек: AC3
Видео: AVC, 1280x720 (16:9), 23.976fps, ~3900kbps ~0.180 bit/pixel-Аудио 1: Dolby AC3 48000Hz stereo 192Kbps Русский
Аудио 2: Dolby AC3 48000Hz 6ch 384Kbps Оригинал (Английский)-

MediaInfo

Код:
General
Unique ID                   : 209406478095025273282429999893171334769 (0x9D8A387DE82F2D69A2DC4FA703B6EE71)
Complete name               : Z:\HD\The Shannara Chronicles. 1 season (HDTVRip l 720p l Jaskier)\The.Shannara.Chronicles.S01E01-E02.720p.HDTV.x264-JASKiER.mkv
Format                      : Matroska
Format version              : Version 1
File size                   : 2.62 GiB
Duration                    : 1h 20mn
Overall bit rate            : 4 633 Kbps
Encoded date                : UTC 2016-01-09 15:52:19
Writing application         : mkvmerge v2.3.0 ('Freak U') built on Sep  8 2008 18:32:16
Writing library             : libebml v0.7.7 + libmatroska v0.8.1
Video
ID                          : 1
Format                      : AVC
Format/Info                 : Advanced Video Codec
Format profile              : High@L4.1
Format settings, CABAC      : Yes
Format settings, ReFrames   : 5 frames
Codec ID                    : V_MPEG4/ISO/AVC
Duration                    : 1h 20mn
Bit rate                    : 3 965 Kbps
Width                       : 1 280 pixels
Height                      : 720 pixels
Display aspect ratio        : 16:9
Frame rate mode             : Constant
Frame rate                  : 23.976 fps
Color space                 : YUV
Chroma subsampling          : 4:2:0
Bit depth                   : 8 bits
Scan type                   : Progressive
Bits/(Pixel*Frame)          : 0.179
Stream size                 : 2.24 GiB (86%)
Writing library             : x264 core 148 r2638 7599210
Encoding settings           : cabac=1 / ref=5 / deblock=1:0:0 / analyse=0x3:0x113 / me=umh / subme=8 / psy=1 / psy_rd=1.00:0.00 / mixed_ref=1 / me_range=16 / chroma_me=1 / trellis=1 / 8x8dct=1 / cqm=0 / deadzone=21,11 / fast_pskip=1 / chroma_qp_offset=-2 / threads=22 / lookahead_threads=3 / sliced_threads=0 / nr=0 / decimate=1 / interlaced=0 / bluray_compat=0 / constrained_intra=0 / bframes=3 / b_pyramid=2 / b_adapt=2 / b_bias=0 / direct=3 / weightb=1 / open_gop=0 / weightp=2 / keyint=250 / keyint_min=23 / scenecut=40 / intra_refresh=0 / rc_lookahead=50 / rc=crf / mbtree=1 / crf=18.0 / qcomp=0.60 / qpmin=0 / qpmax=69 / qpstep=4 / ip_ratio=1.40 / aq=1:1.00
Language                    : English
Default                     : Yes
Forced                      : No
Color range                 : Limited
Matrix coefficients         : BT.709
Audio #1
ID                          : 2
Format                      : AC-3
Format/Info                 : Audio Coding 3
Mode extension              : CM (complete main)
Format settings, Endianness : Big
Codec ID                    : A_AC3
Duration                    : 1h 20mn
Bit rate mode               : Constant
Bit rate                    : 192 Kbps
Channel(s)                  : 2 channels
Channel positions           : Front: L R
Sampling rate               : 48.0 KHz
Compression mode            : Lossy
Stream size                 : 111 MiB (4%)
Language                    : Russian
Default                     : Yes
Forced                      : No
Audio #2
ID                          : 3
Format                      : AC-3
Format/Info                 : Audio Coding 3
Mode extension              : CM (complete main)
Format settings, Endianness : Big
Codec ID                    : A_AC3
Duration                    : 1h 20mn
Bit rate mode               : Constant
Bit rate                    : 384 Kbps
Channel(s)                  : 6 channels
Channel positions           : Front: L C R, Side: L R, LFE
Sampling rate               : 48.0 KHz
Compression mode            : Lossy
Stream size                 : 222 MiB (8%)
Language                    : English
Default                     : No
Forced                      : No

Скриншоты

Ссылка на предыдущие и альтернативные раздачи

Внимание! Раздача ведётся путём добавления новых серий

Внимание! Раздача ведётся путём добавления новых серий; при каждом добавлении создаётся новый торрент. Чтобы начать докачку новой серии, пользователям необходимо сделать следующее:
(1) остановить скачивание,
(2) удалить старый торрент у себя из клиента (старые серии удалять не надо),
(3) скачать новый торрент и запустить его у себя в клиенте вместо старого, при этом указать клиенту путь в старую папку куда и должно происходить скачивание новых серий.
Ваш клиент при этом должен произвести хеширование (проверку) старой папки (если не производит сам - помогите ему сделать это), и будет докачивать только те серии которых у вас ещё нет. Старые серии при этом не удаляются, а продолжают раздаваться!
Eсли вы уже удалили старые серии, то предотвратить повторную закачку старых серий можно, отжав галочку в соответствующих местах при запуске нового торрента. По возможности, желательно не удалять старые серии как можно дольше чтобы релизёр не столько продолжал раздавать старые серии, а смог сконцентрироваться на новых.
Вне форума [Профиль] [ЛС]
Показать сообщения:    
Ответить на тему

Текущее время: Сегодня 07:10

Часовой пояс: GMT + 3



Вы не можете начинать темы
Вы не можете отвечать на сообщения
Вы не можете редактировать свои сообщения
Вы не можете удалять свои сообщения
Вы не можете голосовать в опросах
Вы не можете прикреплять файлы к сообщениям
Вы не можете скачивать файлы