Сегодня идет свободное скачивание без начисления Download

Однажды в сказке / Давным-давно / В некотором царстве / Once Upon a Time / Сезон: 4 / Серии: 1-23 из 23 (Дин Уайт, Ральф Хемекер, Дэвид Соломон / Dean White, Ralph Hemecker, David Solomon) [2014-2015, драма, фэнтези, WEB-DLRip 400p] Dub (Невафильм)

Ответить на тему
 
Автор
Сообщение

Omen ®

Стаж: 6 лет 1 месяц

Сообщений: 184308

Торрент-статистика

Пост 30-Янв-2016 00:00

[Цитировать]

Однажды в сказке / Давным-давно / В некотором царстве / Once Upon a Time«Сторибрук во власти холода!»- Год выпуска: 2014-2015
Страна: США
Жанр: драма, фэнтези
Продолжительность: 00:42:55
Перевод: Профессиональный (дублированный) Невафильм
Субтитры: нет-Режиссёр: Дин Уайт, Ральф Хемекер, Дэвид Соломон / Dean White, Ralph Hemecker, David Solomon-В ролях: Дженнифер Моррисон, Джиннифер Гудвин, Роберт Карлайл, Лана Паррия, Джошуа Даллас, Джаред Гилмор, Рафаэль Сбардж, Меган Ори, Эмили де Рэйвин, Колин О’Донохью-Описание: Сюжет фэнтези разворачивается в двух мирах — современном и сказочном. Беззаботная жизнь 28-летней Эммы Свон меняется, когда ее 10-летний сын Генри, от которого она отказалась много лет назад, находит Эмму и объявляет, что она является дочерью Прекрасного Принца и Белоснежки. Само собой разумеется, у мальчишки нет никаких сомнений, что параллельно нашему существует альтернативный сказочный мир — город Сторибрук, в котором в итоге оказывается Эмма. Постепенно героиня привязывается к необычному мальчику и странному городу, жители которого «забыли», кем они были в прошлом. А все из-за проклятия Злой Королевы (по совместительству приемной матери Генри), с помощью которого колдунья остановила время в сказочной стране. Однако стоит протянуть руку — и сказка оживет. Эпическая битва за будущее двух миров начинается, но, чтобы одержать победу, Эмме придется принять свою судьбу…- -Сэмпл: http://multi-up.com/1014887-Качество: WEB-DLRip 400р [Once.Upon.A.Time.S04E01.1080p.WEB-DL.DD5.1.H.264-ECI]
Формат: AVI
Видео: 704x400 (1.76:1), 23.976 fps, XviD build 73 ~2133 kbps avg, 0.31 bit/pixel
Аудио 1: 48 kHz, AC3 Dolby Digital, 2/0 (L,R) ch, ~192.00 kbps avg |DUB|
Аудио 2: 48 kHz, AC3 Dolby Digital, 3/2 (L,C,R,l,r) + LFE ch, ~384.00 kbps avg |ENG|-

Список серий

01. История двух сестёр / A Tale of Two Sisters
02. Снежная мгла / White Out
03. Каменистая дорога / Rocky Road
04. Ученик / The Apprentice
05. Разбитое стекло / Breaking Glass
06. Семейные дела / Family Business
07. Снежная Королева / The Snow Queen
08. Разбить зеркало / Smash the Mirror
09. Разбить зеркало (Часть 2) / Smash the Mirror (Part 2)
10. Падение / Fall
11. Обман зрения / Shattered Sight
12. Герои и злодеи / Heroes and Villains
13. Тьма у границы города / Darkness on the Edge of Town
14. Непрощенный / Unforgiven
15. Пришествие Дракона / Enter the Dragon
16. Несчастная душа / Poor Unfortunate Soul
17. Безупречный план / Best Laid Plans
18. Золотое сердце / Heart of Gold
19. Сочувствие к Де Вилль / Sympathy for the De Vil
20. Лили / Lily
21. Мама / Mother
22. Операция «Мангуст»: Часть 1 / Operation Mongoose: Part 1
23. Операция «Мангуст»: Часть 2 / Operation Mongoose: Part 2

MediaInfo

Код:
Формат                                   : AVI
Формат/Информация                        : Audio Video Interleave
Размер файла                             : 838 Мбайт
Продолжительность                        : 43 м.
Общий поток                              : 2723 Кбит/сек
Программа кодирования                    : VirtualDubMod 1.5.10.3 | www.virtualdub-fr.org || (build 2550/release)
Библиотека кодирования                   : VirtualDubMod build 2550/release
Видео
Идентификатор                            : 0
Формат                                   : MPEG-4 Visual
Профиль формата                          : Advanced Simple@L5
Параметр BVOP формата                    : 1
Параметр QPel формата                    : Нет
Параметр GMC формата                     : Без точки перехода
Параметр матрицы формата                 : Выборочная
Идентификатор кодека                     : XVID
Идентификатор кодека/Подсказка           : XviD
Продолжительность                        : 43 м.
Битрейт                                  : 2133 Кбит/сек
Ширина                                   : 704 пикселя
Высота                                   : 400 пикселей
Соотношение сторон                       : 16:9
Частота кадров                           : 23,976 кадра/сек
Цветовое пространство                    : YUV
Субдискретизация насыщенности            : 4:2:0
Битовая глубина                          : 8 бит
Тип развёртки                            : Прогрессивная
Метод сжатия                             : С потерями
Бит/(Пиксели*Кадры)                      : 0.316
Размер потока                            : 656 Мбайт (78%)
Библиотека кодирования                   : XviD 73
Аудио #1
Идентификатор                            : 1
Формат                                   : AC-3
Формат/Информация                        : Audio Coding 3
Расширение режима                        : CM (complete main)
Параметр Endianness формата              : Big
Идентификатор кодека                     : 2000
Продолжительность                        : 43 м.
Вид битрейта                             : Постоянный
Битрейт                                  : 192 Кбит/сек
Каналы                                   : 2 канала
Расположение каналов                     : Front: L R
Частота                                  : 48,0 КГц
Битовая глубина                          : 16 бит
Метод сжатия                             : С потерями
Размер потока                            : 59,1 Мбайт (7%)
Выравнивание                             : Разделение по промежуткам
Продолжительность промежутка             : 42  мс. (1,00 видеокадр)
Время предзагрузки промежутка            : 500  мс.
Аудио #2
Идентификатор                            : 2
Формат                                   : AC-3
Формат/Информация                        : Audio Coding 3
Расширение режима                        : CM (complete main)
Параметр Endianness формата              : Big
Идентификатор кодека                     : 2000
Продолжительность                        : 43 м.
Вид битрейта                             : Постоянный
Битрейт                                  : 384 Кбит/сек
Каналы                                   : 6 каналов
Расположение каналов                     : Front: L C R, Side: L R, LFE
Частота                                  : 48,0 КГц
Битовая глубина                          : 16 бит
Метод сжатия                             : С потерями
Размер потока                            : 118 Мбайт (14%)
Выравнивание                             : Разделение по промежуткам
Продолжительность промежутка             : 42  мс. (1,00 видеокадр)
Время предзагрузки промежутка            : 500  мс.
[/spoiler]

Скриншоты

Дополнительно

Работа со звуком: Baggio

Внимание! Раздача ведётся путём добавления новых серий

Внимание! Раздача ведётся путём добавления новых серий; при каждом добавлении создётся новый торрент. Чтобы начать докачку новой серии, пользователям необходимо сделать следующее:
(1) остановить скачивание,
(2) удалить старый торрент у себя из клиента (старые серии удалять не надо),
(3) скачать новый торрент и запустить его у себя в клиенте вместо старого, при этом указать клиенту путь в старую папку куда и должно происходить скачивание новых серий.
Ваш клиент при этом должен произвести хеширование (проверку) старой папки (если не производит сам - помогите ему сделать это), и будет докачивать только те серии которых у вас ещё нет. Старые серии при этом не удаляются, а продолжают раздаваться!
Eсли вы уже удалили старые серии, то предотвратить повторную закачку старых серий можно, отжав галочку в соответсвующих местах при запуске нового торрента. По возможности, желательно не удалять старые серии как можно дольше чтобы релизёр не столько продолжал раздавать старые серии, а смог сконцентрироваться на новых.
Вне форума [Профиль] [ЛС]
Показать сообщения:    
Ответить на тему

Текущее время: Сегодня 11:15

Часовой пояс: GMT + 3



Вы не можете начинать темы
Вы не можете отвечать на сообщения
Вы не можете редактировать свои сообщения
Вы не можете удалять свои сообщения
Вы не можете голосовать в опросах
Вы не можете прикреплять файлы к сообщениям
Вы не можете скачивать файлы