Сегодня идет свободное скачивание без начисления Download

Портландия / Portlandia / Сезон: 2 / Серии: 1-10 из 10 (Джонатан Крисел / Jonathan Krisel) [2012, комедия, HDRip 400p] DVO (Ozz) + Original Eng

Ответить на тему
 
Автор
Сообщение

Omen ®

Стаж: 5 лет 7 месяцев

Сообщений: 185427

Торрент-статистика

Пост 29-Янв-2016 21:00

[Цитировать]

Портландия - Второй сезонPortlandia - Second Season- Год выпуска: 2012
Страна: США
Жанр: комедия-Продолжительность: 00:25:00
Перевод: Профессиональный (двухголосый закадровый) Ozz
Режиссёр: Джонатан Крисел / Jonathan Krisel
В ролях: Фред Армизен, Керри Браунстин, Энди Семберг, Эрин Магихи, Джеймс Коллис, Джефф Голдблюм, Рональд Д. Мур, Эдвард Джеймс Олмос, Эдди Веддер, Джек МакБрейер, Ребекка Коул, Шохре Агдашлу, Шон Хейс, Айзек Брок, Энни Кларк, Кайл МакЛахлан, Кристен Уиг, Эмбер Темблин, Миранда Джулай, Робин Пекнолд, Джоанна Ньюсом, Пенни Маршалл, ЛаМаркус Элдридж, Энджел Буше, Сонни Хесс, Джонни Марр, Брюс Кокбёрн, Эд Бегли-мл., Тим Роббинс, Стив Джонс и др.-Описание: Портландия — это юмористические зарисовки из жизни Портленда, города на северо-западе США, где живёт мечта 1990-х и 1890-х, где жители предпочитают велосипеды автомобилям, где процветает веганство, айфонизация, феминизм и прочие человеческие пороки, где мэр лично собирает бейсбольную лигу и гордится грамотой за лучший сайт среди городов северо-западного побережья с населением меньше 700 тысяч человек. Именно так его видят двое постоянных участников шоу «Субботним вечером в прямом эфире» Фред Армизен и Керри Браунстин и именно таким они хотят его показать всему остальному миру, пропустив через призму доброго и трогательного юмора, порой забегающего на территорию циничности и сарказма.- --
Озвучка: Алексей Серёгин и Катя Данилова
Перевод: Василий Мерзляков
Подготовлено: Ozz-Качество: HDRip
Формат: AVI
Видео: XviD, 720x400 (16:9), 23.976 fps, ~2000 kbps
Аудио #1: Russian 48 kHz, AC3, 2 ch, ~192.00 kbps avg |Ozz|
Аудио #2: English 48 kHz, AC3, 2 ch, ~192.00 kbps avg |Original|
Субтитры: русские (на песни)-

MediaInfo

General
Complete name : G:\Portlandia Season 2 Ozz\Portlandia.S02E01.HDRip.Ozz.avi
Format : AVI
Format/Info : Audio Video Interleave
File size : 389 MiB
Duration : 22mn 39s
Overall bit rate : 2 398 Kbps
Writing application : VirtualDubMod 1.5.10.3 | www.virtualdub-fr.org || (build 2550/release)
Writing library : VirtualDubMod build 2550/release
Video
ID : 0
Format : MPEG-4 Visual
Format profile : Advanced Simple@L5
Format settings, BVOP : 1
Format settings, QPel : No
Format settings, GMC : No warppoints
Format settings, Matrix : Default (MPEG)
Codec ID : XVID
Codec ID/Hint : XviD
Duration : 22mn 39s
Bit rate : 2 000 Kbps
Width : 720 pixels
Height : 400 pixels
Display aspect ratio : 16:9
Frame rate : 23.976 fps
Color space : YUV
Chroma subsampling : 4:2:0
Bit depth : 8 bits
Scan type : Progressive
Compression mode : Lossy
Bits/(Pixel*Frame) : 0.290
Stream size : 324 MiB (83%)
Writing library : XviD 67
Audio #1
ID : 1
Format : AC-3
Format/Info : Audio Coding 3
Mode extension : CM (complete main)
Format settings, Endianness : Big
Codec ID : 2000
Duration : 22mn 39s
Bit rate mode : Constant
Bit rate : 192 Kbps
Channel(s) : 2 channels
Channel positions : Front: L R
Sampling rate : 48.0 KHz
Bit depth : 16 bits
Compression mode : Lossy
Stream size : 31.1 MiB (8%)
Alignment : Split accross interleaves
Interleave, duration : 42 ms (1.00 video frame)
Interleave, preload duration : 500 ms
Audio #2
ID : 2
Format : AC-3
Format/Info : Audio Coding 3
Mode extension : CM (complete main)
Format settings, Endianness : Big
Codec ID : 2000
Duration : 22mn 39s
Bit rate mode : Constant
Bit rate : 192 Kbps
Channel(s) : 2 channels
Channel positions : Front: L R
Sampling rate : 48.0 KHz
Bit depth : 16 bits
Compression mode : Lossy
Stream size : 31.1 MiB (8%)
Alignment : Split accross interleaves
Interleave, duration : 42 ms (1.00 video frame)
Interleave, preload duration : 500 ms

Скриншоты

-
Вне форума [Профиль] [ЛС]
Показать сообщения:    
Ответить на тему

Текущее время: Сегодня 08:25

Часовой пояс: GMT + 3



Вы не можете начинать темы
Вы не можете отвечать на сообщения
Вы не можете редактировать свои сообщения
Вы не можете удалять свои сообщения
Вы не можете голосовать в опросах
Вы не можете прикреплять файлы к сообщениям
Вы не можете скачивать файлы