Сегодня идет свободное скачивание без начисления Download

Просьба не беспокоить / Do not disturb / Телефильм (Найджел Коул) [Великобритания, 2016, комедия, TVRip] Original + Rus Subs

Ответить на тему
 
Автор
Сообщение

Omen ®

Стаж: 5 лет 11 месяцев

Сообщений: 184329

Торрент-статистика

Пост 29-Янв-2016 21:00

[Цитировать]

Просьба не беспокоить / Do not disturb
Год выпуска: 2016
Страна: Великобритания
Жанр: комедия
Продолжительность: 00:43:00
Перевод: Субтитры (М.Васильев)
Режиссёр: Найджел Коул
В ролях: Кэтрин Тейт, Майлс Джапп, Дилан Эдвардс, Стив Эдж, Шина Гибсон
Описание: В славном городке Стратфорд-на-Эйвоне все пропитано духом Шекспира. Поэтому, только здесь могла произойти эта история в духе "весь мир - театр, люди в нем - актеры". В самом обычном номере самого обычного отеля под оптимистичным названием "В гостях у Йорика" пересеклись пути нескольких молодых людей, устроивших мальчишник, переживающей кризис в отношениях супружеской пары и двух проституток... А расхлебывать эту кашу пришлось, конечно, сотрудникам отеля.
Доп. информация: Телевизионный фильм канала Gold TV. Это не сериал (по крайней мере, канал пока не обьявил о намерении сериализовать данный формат), но из-за хронометража в раздел "Зарубежное кино" не пропустят, а запихивать в отдел "короткий метр" не вижу смысла. Там это кино пройдет незамеченным. Здесь больше шансов, что его посмотрит максимальное количество любителей британских комедий.
Фильм - классическая комедия положений с юмором "18+"
Эфир: 27 января 2016 г.
Сэмпл
IMDB
Качество: TVRip
Формат: AVI
Видео: 1329 Kbps, 608x336 (16:9), 25 000 fps, MPEG 4 XviD
Аудио: 128 Kbps, 48.0 KHz, 2 ch, MP 3
Субтитры: srt

MediaInfo

General
Complete name : C:\Users\Владелец\Desktop\Do.Not.Disturb.S01E01-PDTV-newRock.avi
Format : AVI
Format/Info : Audio Video Interleave
File size : 451 MiB
Duration : 43mn 0s
Overall bit rate : 1 466 Kbps
Video
ID : 0
Format : MPEG-4 Visual
Format profile : Advanced Simple@L5
Format settings, BVOP : 2
Format settings, QPel : No
Format settings, GMC : No warppoints
Format settings, Matrix : Default (H.263)
Codec ID : XVID
Codec ID/Hint : XviD
Duration : 43mn 0s
Bit rate : 1 329 Kbps
Width : 608 pixels
Height : 336 pixels
Display aspect ratio : 16:9
Frame rate : 25.000 fps
Color space : YUV
Chroma subsampling : 4:2:0
Bit depth : 8 bits
Scan type : Progressive
Compression mode : Lossy
Bits/(Pixel*Frame) : 0.260
Stream size : 409 MiB (91%)
Writing library : XviD 1.2.1 (UTC 2008-12-04)
Audio
ID : 1
Format : MPEG Audio
Format version : Version 1
Format profile : Layer 3
Mode : Joint stereo
Mode extension : MS Stereo
Codec ID : 55
Codec ID/Hint : MP3
Duration : 43mn 0s
Bit rate mode : Constant
Bit rate : 128 Kbps
Channel(s) : 2 channels
Sampling rate : 48.0 KHz
Compression mode : Lossy
Stream size : 39.4 MiB (9%)
Alignment : Aligned on interleaves
Interleave, duration : 40 ms (1.00 video frame)
Interleave, preload duration : 504 ms

Скриншоты





Вне форума [Профиль] [ЛС]
Показать сообщения:    
Ответить на тему

Текущее время: Сегодня 07:54

Часовой пояс: GMT + 3



Вы не можете начинать темы
Вы не можете отвечать на сообщения
Вы не можете редактировать свои сообщения
Вы не можете удалять свои сообщения
Вы не можете голосовать в опросах
Вы не можете прикреплять файлы к сообщениям
Вы не можете скачивать файлы