Сегодня идет свободное скачивание без начисления Download

Пространство / Экспансия / The Expanse / Сезон: 1 / Серии: 1-8 из 10 (Роберт Либерман / Robert Lieberman) [2015, Фантастика, детектив, WEB-DL 720p] MVO (OMSKBIRD records) + Original + Subs (Rus, Eng)

Ответить на тему
 
Автор
Сообщение

Omen ®

Стаж: 6 лет 1 месяц

Сообщений: 184308

Торрент-статистика

Пост 29-Янв-2016 18:00

[Цитировать]

--Пространство / Экспансия / The Expanse-- Год выпуска: 2015
Страна: США
Жанр: Фантастика, детектив
Продолжительность: ~ 00:43:00-Перевод: Любительский (многоголосый закадровый) OMSKBIRD records-Режиссёр: Роберт Либерман / Robert Lieberman-В ролях: Шоре Агдашлу, Кэс Анвар, Уэс Чэтэм, Томас Джейн, Стивен Стрейт, Илайс Туфексис, Джейн Моффат, Сара Митич, Майкл Мюррей, Джо Делфин.-Описание: Через двести лет от дня сегодняшнего некий сыщик, привыкший всё доводить до конца при любых обстоятельствах, в рамках расследования дела об исчезновении молодой женщины оказывается на борту звездолета, капитан которого решает помочь детективу в его непростом деле. Величайший заговор в истории человечества гарантируется, как и его непременное раскрытие.-Доп. информация:
Релиз-группа:
Роли озвучивали: Павел Ярощик, Ольга Федорова, Алексей Гнеушев и Эльвира Адамова
Звукорежиссер: Павел Ярощик- --Качество: WEB-DL 720p
Контейнер: MKV
Видео: H.264, 1280x720 (16:9), 23,976 fps, ~3910 kbps, 0.177 bit/pixel
Аудио # 1: AC3, 48 kHz, 6 ch, 384 kbps - OMSKBIRD records
Аудио # 2 : AC3, 48 kHz, 6 ch, 384 kbps - оригинал
Субтитры: Русские (OmskBird), английские

Релиз

Релиз подготовил: Skyns61
Сборка, работа со звуком: Skyns61

Список серий

01. Дульсинея
02. The Big Empty
03. Remember the Cant
04. CQB
05. Back to the Butcher
06. Rock Bottom
07. Windmills
08. Salvage

MediaInfo

Общее
Уникальный идентификатор : 180010655832776725294936730865656525217 (0x876CCA8E8E047EE88F9EF9B3E191F1A1)
Полное имя : G:\Films\The.Expanse.S01.720p.WEB-DL.OmskBird\The.Expanse.S01E01.720p.WEB-DL.OmskBird.DD5.1.mkv
Формат : Matroska
Версия формата : Version 4 / Version 2
Размер файла : 1,49 Гбайт
Продолжительность : 44 м.
Общий поток : 4773 Кбит/сек
Дата кодирования : UTC 2016-01-08 12:57:48
Программа кодирования : mkvmerge v8.6.1 ('Flying') 64bit
Библиотека кодирования : libebml v1.3.3 + libmatroska v1.4.4
Видео
Идентификатор : 1
Формат : AVC
Формат/Информация : Advanced Video Codec
Профиль формата : High@L3.1
Параметр CABAC формата : Нет
Параметр ReFrames формата : 2 кадра
Идентификатор кодека : V_MPEG4/ISO/AVC
Продолжительность : 44 м.
Битрейт : 4002 Кбит/сек
Ширина : 1280 пикселей
Высота : 720 пикселей
Соотношение сторон : 16:9
Режим частоты кадров : Постоянный
Частота кадров : 23,976 (24000/1001) кадра/сек
Цветовое пространство : YUV
Субдискретизация насыщенности : 4:2:0
Битовая глубина : 8 бит
Тип развёртки : Прогрессивная
Бит/(Пиксели*Кадры) : 0.181
Размер потока : 1,25 Гбайт (84%)
Язык : English
Default : Да
Forced : Нет
colour_range : Limited
Основные цвета : BT.709
Характеристики трансфера : BT.709
Коэффициенты матрицы : BT.709
Аудио #1
Идентификатор : 2
Формат : AC-3
Формат/Информация : Audio Coding 3
Расширение режима : CM (complete main)
Параметр Endianness формата : Big
Идентификатор кодека : A_AC3
Продолжительность : 44 м.
Вид битрейта : Постоянный
Битрейт : 384 Кбит/сек
Каналы : 6 каналов
Расположение каналов : Front: L C R, Side: L R, LFE
Частота : 48,0 КГц
Частота кадров : 31,250 кадров/сек (1536 spf)
Метод сжатия : С потерями
Размер потока : 123 Мбайт (8%)
Заголовок : OmskBird 5.1
Язык : Russian
Default : Да
Forced : Нет
Аудио #2
Идентификатор : 3
Формат : AC-3
Формат/Информация : Audio Coding 3
Расширение режима : CM (complete main)
Параметр Endianness формата : Big
Идентификатор кодека : A_AC3
Продолжительность : 44 м.
Вид битрейта : Постоянный
Битрейт : 384 Кбит/сек
Каналы : 6 каналов
Расположение каналов : Front: L C R, Side: L R, LFE
Частота : 48,0 КГц
Частота кадров : 31,250 кадров/сек (1536 spf)
Метод сжатия : С потерями
Размер потока : 123 Мбайт (8%)
Заголовок : original 5.1
Язык : English
Default : Нет
Forced : Нет
Текст #1
Идентификатор : 4
Формат : UTF-8
Идентификатор кодека : S_TEXT/UTF8
Идентификатор кодека/Информация : UTF-8 Plain Text
Продолжительность : 43 м.
Битрейт : 104 бит/сек
Count of elements : 586
Размер потока : 32,9 Кбайт (0%)
Заголовок : rus (OmskBird)
Язык : Russian
Default : Нет
Forced : Нет
Текст #2
Идентификатор : 5
Формат : UTF-8
Идентификатор кодека : S_TEXT/UTF8
Идентификатор кодека/Информация : UTF-8 Plain Text
Продолжительность : 44 м.
Битрейт : 69 бит/сек
Count of elements : 677
Размер потока : 22,5 Кбайт (0%)
Заголовок : CC
Язык : English
Default : Нет
Forced : Нет

Скриншоты

Внимание! Раздача ведётся путём добавления новых серий.


Внимание! Раздача ведётся путём добавления новых серий; при каждом добавлении создётся новый торрент. Чтобы начать докачку новой серии, пользователям необходимо сделать следующее:
Остановить скачивание.
Удалить старый торрент у себя из клиента (старые серии удалять не надо).
Скачать новый торрент и запустить его у себя в клиенте вместо старого, при этом указать клиенту путь в старую папку куда и должно происходить скачивание новых серий.
Ваш клиент при этом должен произвести хеширование (проверку) старой папки (если не производит сам - помогите ему сделать это), и будет докачивать только те серии которых у вас ещё нет. Старые серии при этом не удаляются, а продолжают раздаваться!
Eсли вы уже удалили старые серии, то предотвратить повторную закачку старых серий можно, отжав галочку в соответсвующих местах при запуске нового торрента. По возможности, желательно не удалять старые серии как можно дольше чтобы релизёр не столько продолжал раздавать старые серии, а смог сконцентрироваться на новых.
Раздача обновлена. Добавлена 8-я серия. Приятного просмотра!
Вне форума [Профиль] [ЛС]
Похожие темы
Форум Тема Автор Торрент Отв. Посл. сообщение
./templates/default/images/folder_dl.gif World Pop VA - Просто Красивая Музыка MP3 / 2013 / Pop / 320 kbps akcent7
0 | 1

0 | 1584

26

2013-02-21 01:22
akcent7 Последнее
./templates/default/images/folder_dl.gif Техническая и научно-популярная литература Паоло Аливерти | Электроника для начинающих. Самый простой пошаговый самоучитель (2018) [PDF] }{@R0N
3 | 0

0 | 121757

25

2018-06-09 22:47
}{@R0N Последнее
./templates/default/images/folder_dl.gif Техническая и научно-популярная литература Сергей Попов | Вселенная. Краткий путеводитель по пространству и времени: от Солнечной системы до самых далеких галактик и от Большого взрыва до будущего Вселенной (2018) [FB2] }{@R0N
2 | 0

0 | 355

5

2018-12-08 23:06
}{@R0N Последнее
Показать сообщения:    
Ответить на тему

Текущее время: Сегодня 17:57

Часовой пояс: GMT + 3



Вы не можете начинать темы
Вы не можете отвечать на сообщения
Вы не можете редактировать свои сообщения
Вы не можете удалять свои сообщения
Вы не можете голосовать в опросах
Вы не можете прикреплять файлы к сообщениям
Вы не можете скачивать файлы