Сегодня идет свободное скачивание без начисления Download

В Филадельфии всегда солнечно / It\'s Always Sunny in Philadelphia / Сезон: 11 / Серии: 1-3 из 10 (Мэтт Шекман, Фред Сэвэдж, Дэниэл Эттиэс, Рэндалл Эйнхорн, Ричи Кин, Тодд Бирман, ситком, чёрный юмор) [2016, комедия, WEB-DLRip] MVO (LostFilm)

Ответить на тему
 
Автор
Сообщение

Omen ®

Стаж: 6 лет 1 месяц

Сообщений: 184308

Торрент-статистика

Пост 29-Янв-2016 09:00

[Цитировать]

В Филадельфии всегда солнечно / It's Always Sunny in Philadelphia
Год выпуска: 2016
Страна: США
Жанр: комедия, ситком, чёрный юмор
Продолжительность: ~ 20 минут
Перевод: Профессиональный (многоголосый закадровый) LostFilm
Режиссёр: Мэтт Шекман, Фред Сэвэдж, Дэниэл Эттиэс, Рэндалл Эйнхорн, Ричи Кин, Тодд Бирман
В ролях: Гленн Хоуертон (Деннис Рейнольдс), Чарли Дэй (Чарли Келли), Роб МакЭлхенни (Мак), Кэйтлин Олсон (Ди Рейнольдс), Мэри Элизабет Эллис (Официантка), Дэвид Хорнсби (Мэттью), Артемис Пебдани (Артемис), Дэнни Де Вито (Фрэнк Рейнольдс).
Сценаристы: Роб МакЭлхенни, Гленн Хоуертон, Чарли Дэй, Дэвид Хорнсби, Скотт Мардер, Роб Роселл.
Описание: В одном из неблагополучных районов Филадельфии располагается ирландский паб, чьих владельцев нельзя назвать не только благонадежными, но и попросту хорошими людьми. Они готовы перегрызть друг другу глотки ради достижения собственных целей. Окружающие едва терпят эту шайку, ведь характеры у ее членов совсем не простые. Все они аморальны, себялюбивы, эгоистичны и, конечно, абсолютно не толерантны. При этом у каждого имеются свои особенности. Чарли — жизнерадостный, неряшливый тупица, категорически отрицающий хоть какую-то самодисциплину. Деннис — нарцисс, считающий себя неотразимым мачо. Ди — неудачливая актриса, тем не менее не оставляющая мечты об экране. Мак — человек с огромной черной дырой в голове, главный идейный вдохновитель всего того бреда, что творят герои на экране. Впоследствии к этим колоритным личностям присоединится отец Денниса и Ди, и разношерстная компания пытается удержать бар на плаву, используя для этого все более и более безумные замыслы. А по ходу участники банды не прочь цинично обсудить всевозможные социальные проблемы — от религии и расизма до азартных игр и финансового кризиса.
Доп. информация: «В Филадельфии всегда солнечно» — один из самых долгоиграющих ситкомов на телевидении, радующий своих поклонников вот уже на протяжении десяти лет. Современные зрители любят циничных, аморальных, наделенных ядовитым чувством юмора героев. В комедии It's Always Sunny in Philadelphia таких гадких и враждебных к окружающим персонажей сразу несколько. И никакого закадрового смеха или бутафорских декораций — только натурная съемка, блестящая актерская игра и сюжет, построенный на конфликтах между членами шайки и абсурдных ситуациях. Интересно, что создатели сериала — Роб МакЭлхенни и Гленн Хоуертон — сыграли в нем главные роли. Что, впрочем, не удивительно, ведь изначально проект создавался командой энтузиастов во главе с двумя этими актерами. И лишь потом, когда «Филадельфия» приобрела популярность, к работе над ней приобщился Дэнни Де Вито. Вместе они сумели раскрутить шоу, которое, не обладая огромным количеством наград, так полюбилось сериаломанам, что те готовы посмотреть хоть еще десять сезонов.
Сэмпл: http://sendfile.su/1192509
Качество: WEB-DLRip
Формат: AVI
Видео: Xvid 720x400 23.976fps 1912kbps (16:9)
Аудио: MP3 48000Hz stereo 187kbps - RUS
Субтитры: НЕТ

Список серий

Сезон 11 - 2016 (wirruss)
  • ЧарДиМакДеннис-2: электрик бугалу (Chardee MacDennis 2: Electric Boogaloo)
  • Как Фрэнк выпал из окна (Frank Falls Out the Window)
  • Шайка режет склоны (The Gang Hits the Slopes)






MediaInfo

General
Complete name : C:\wirruss\Its Always Sunny in Philadelphia 11 - LostFilm.TV\Its.Always.Sunny.in.Philadelphia.S11E01.rus.LostFilm.TV.avi
Format : AVI
Format/Info : Audio Video Interleave
File size : 313 MiB
Duration : 20mn 42s
Overall bit rate mode : Variable
Overall bit rate : 2 112 Kbps
Writing application : Nandub v1.0rc2
Writing library : Nandub build 1853/release
Video
ID : 0
Format : MPEG-4 Visual
Format profile : Advanced Simple@L5
Format settings, BVOP : No
Format settings, QPel : No
Format settings, GMC : No warppoints
Format settings, Matrix : Default (H.263)
Codec ID : XVID
Codec ID/Hint : XviD
Duration : 20mn 42s
Bit rate : 1 912 Kbps
Width : 720 pixels
Height : 400 pixels
Display aspect ratio : 16:9
Frame rate : 23.976 fps
Color space : YUV
Chroma subsampling : 4:2:0
Bit depth : 8 bits
Scan type : Progressive
Compression mode : Lossy
Bits/(Pixel*Frame) : 0.277
Stream size : 283 MiB (91%)
Writing library : XviD 1.2.1 (UTC 2008-12-04)
Audio
ID : 1
Format : MPEG Audio
Format version : Version 1
Format profile : Layer 3
Mode : Joint stereo
Mode extension : MS Stereo
Codec ID : 55
Codec ID/Hint : MP3
Duration : 20mn 42s
Bit rate mode : Variable
Bit rate : 192 Kbps
Channel(s) : 2 channels
Sampling rate : 48.0 KHz
Compression mode : Lossy
Stream size : 27.7 MiB (9%)
Alignment : Aligned on interleaves
Interleave, duration : 24 ms (0.58 video frame)
Interleave, preload duration : 434 ms
Writing library : LAME3.97b
Encoding settings : -m j -V 4 -q 3 -lowpass 18.6 --abr 192

Внимание! Раздача ведётся путём добавления новых серий

Внимание! Раздача ведётся путём добавления новых серий; при каждом добавлении создаётся новый торрент. Чтобы начать докачку новой серии, пользователям необходимо сделать следующее:
(1) остановить скачивание,
(2) удалить старый торрент у себя из клиента (старые серии удалять не надо),
(3) скачать новый торрент и запустить его у себя в клиенте вместо старого, при этом указать клиенту путь в старую папку куда и должно происходить скачивание новых серий.
Ваш клиент при этом должен произвести хеширование (проверку) старой папки (если не производит сам - помогите ему сделать это), и будет докачивать только те серии которых у вас ещё нет. Старые серии при этом не удаляются, а продолжают раздаваться!
Eсли вы уже удалили старые серии, то предотвратить повторную закачку старых серий можно, отжав галочку в соответствующих местах при запуске нового торрента. По возможности, желательно не удалять старые серии как можно дольше чтобы релизёр не столько продолжал раздавать старые серии, а смог сконцентрироваться на новых.
[wirruss]
Вне форума [Профиль] [ЛС]
Показать сообщения:    
Ответить на тему

Текущее время: Сегодня 17:58

Часовой пояс: GMT + 3



Вы не можете начинать темы
Вы не можете отвечать на сообщения
Вы не можете редактировать свои сообщения
Вы не можете удалять свои сообщения
Вы не можете голосовать в опросах
Вы не можете прикреплять файлы к сообщениям
Вы не можете скачивать файлы