Сегодня идет свободное скачивание без начисления Download

Версаль / Versailles / Сезон: 1 / Серии: 1-6 из 10 (Дениэл Роби, Кристоф Шреве) [2015, Драма, исторический, HDTVRip] MVO (RedDiamond Studio) + Original Eng + Sub Rus

Ответить на тему
 
Автор
Сообщение

Omen ®

Стаж: 5 лет 10 месяцев

Сообщений: 184329

Торрент-статистика

Пост 29-Янв-2016 03:00

[Цитировать]

Версаль / Versailles
Год выпуска: 2015
Страна: Франция, Канада
Жанр: Драма, исторический
Продолжительность: ~00:54:00
Перевод: Любительский (многоголосый закадровый) RedDiamond Studio
Режиссёр: Дениэл Роби, Кристоф Шреве
В ролях: Джордж Благден, Александр Влахос, Амира Касар, и др.
Описание: Людовик XIV взошёл на престол, когда ему было четыре года. В течение многих лет Францией управлял Совет Министров, возглавляемый его матерью. Теперь она мертва, и у знати с каждым днём всё больше власти. Чтобы выжить, Людовику необходимо сокрушить своих врагов и выстроить новую власть с чистого листа вдали от Парижа, в деревушке под названием Версаль.
Сэмпл: https://yadi.sk/i/cMXg8uDRkwa7x
Качество: HDTVRip
Формат: AVI
Видео: XviD, 704х400 (16:9), 25 Fps, 1424 Kbps
Аудио: ac3, 48000, 2 ch, 192 Kbps (Rus MVO)
Аудио 2: ac3, 48000, 2 ch, 192 Kbps (Original Eng)
Субтитры: Русские (внешние)

Релиз

Озвучено релиз группой RedDiamond Studio при финансовой поддержке фанатов сериала.
Текст читали: Андрей Вересков, Матвей Кенс, Саломея Журавская, Рина Чернышова и Дмитрий Рыжков.
Перевод Эсфири Галицкой
Автор постера - Alex Homin

MediaInfo

General
Complete name : C:\Фильмы\Версаль\Версаль s01e01.avi
Format : AVI
Format/Info : Audio Video Interleave
File size : 708 MiB
Duration : 54mn 17s
Overall bit rate : 1 822 Kbps
Writing application : VirtualDubMod 1.5.10.2 (build 2542/release)
Writing library : VirtualDubMod build 2542/release
Video
ID : 0
Format : MPEG-4 Visual
Format profile : Advanced Simple@L5
Format settings, BVOP : 2
Format settings, QPel : No
Format settings, GMC : No warppoints
Format settings, Matrix : Default (H.263)
Codec ID : XVID
Codec ID/Hint : XviD
Duration : 54mn 17s
Bit rate : 1 424 Kbps
Width : 704 pixels
Height : 400 pixels
Display aspect ratio : 16:9
Frame rate : 25.000 fps
Color space : YUV
Chroma subsampling : 4:2:0
Bit depth : 8 bits
Scan type : Progressive
Compression mode : Lossy
Bits/(Pixel*Frame) : 0.202
Stream size : 553 MiB (78%)
Writing library : XviD 65
Audio #1
ID : 1
Format : AC-3
Format/Info : Audio Coding 3
Mode extension : CM (complete main)
Format settings, Endianness : Big
Codec ID : 2000
Duration : 54mn 17s
Bit rate mode : Constant
Bit rate : 192 Kbps
Channel(s) : 2 channels
Channel positions : Front: L R
Sampling rate : 48.0 KHz
Compression mode : Lossy
Stream size : 74.6 MiB (11%)
Alignment : Split accross interleaves
Interleave, duration : 40 ms (1.00 video frame)
Interleave, preload duratio : 500 ms
Audio #2
ID : 2
Format : AC-3
Format/Info : Audio Coding 3
Mode extension : CM (complete main)
Format settings, Endianness : Big
Codec ID : 2000
Duration : 54mn 17s
Bit rate mode : Constant
Bit rate : 192 Kbps
Channel(s) : 2 channels
Channel positions : Front: L R
Sampling rate : 48.0 KHz
Compression mode : Lossy
Stream size : 74.6 MiB (11%)
Alignment : Split accross interleaves
Interleave, duration : 40 ms (1.00 video frame)
Interleave, preload duratio : 500 ms

Скриншоты

Вне форума [Профиль] [ЛС]
Показать сообщения:    
Ответить на тему

Текущее время: Сегодня 04:07

Часовой пояс: GMT + 3



Вы не можете начинать темы
Вы не можете отвечать на сообщения
Вы не можете редактировать свои сообщения
Вы не можете удалять свои сообщения
Вы не можете голосовать в опросах
Вы не можете прикреплять файлы к сообщениям
Вы не можете скачивать файлы