Сегодня идет свободное скачивание без начисления Download

Викинги / Vikings / Сезон: 3 / Серии: 10 из 10 (Киаран Доннелли, Йохан Ренк, Кен Джиротти) [2015, боевик, драма, военный, история, BDRip 720p] MVO (LostFilm) + MVO (AlexFilm) + Original

Ответить на тему
 
Автор
Сообщение

Omen ®

Стаж: 5 лет 11 месяцев

Сообщений: 184329

Торрент-статистика

Пост 29-Янв-2016 03:00

[Цитировать]

Викинги / Vikings-«The Storm Is Coming»- - -Год выпуска: 2015
Страна: Ирландия, Канада
Жанр: Боевик, драма, военный, история
Продолжительность: ~00:44:00-Перевод: Профессиональный (многоголосый закадровый) | LostFilm
Перевод: Профессиональный (многоголосый закадровый) | AlexFilm
Субтитры: отсутствуют-Режиссёр: Йохан Ренк, Киаран Доннелли, Кен Джиротти и др.-В ролях: Трэвис Фиммел, Клайв Стэнден, Гэбриел Бирн, Кэтрин Уинник, Джессалин Гилсиг, Джордж Благден, Густаф Скарсгард, Торбьорн Харр, Владимир Кулих, Донал Лог, Айван Кэй, Мод Хирст, Эрик Хиггинс, Герард Маккарти, Юко Ахола, Эми Де Брюн, Сэм Смит, Билл Гибсон, Кевин Мюррэй-Описание: История повествует о приключениях величайшего героя своего времени – Рагнара Лодброка. В сериале показан Рагнар со своим племенем братьев-викингов и его семьёй в процессе становления королём всех племён викингов. Рагнар – бесстрашный воин, и религиозный викинг, который объединяет все племена и распространяет среди них поклонение скандинавским богам. Согласно легенде, он – прямой потомок Одина, бога войны и воителей.-- -Цитата:
Цитата:
За ремукс огромное спасибо k-marat-s
Энкод TV-cut (обычной версии)
-Качество: BDRip 720p
Контейнер: MKV
Видео: 1280x720, 23.976 fps, ~7000-8900 kbps avg, 0.329 bit/pixel
Аудио: 48 kHz, AC3, 3/2 (L,C,R,l,r) + LFE ch, ~640.00 kbps avg | (LostFilm)
Аудио: 48 kHz, AC3, 3/2 (L,C,R,l,r) + LFE ch, ~640.00 kbps avg | (AlexFilm)
Аудио: 48 kHz, AC3, 3/2 (L,C,R,l,r) + LFE ch, ~640.00 kbps avg-

Список серий

01: Наёмник (Mercenary)
02: Странник (The Wanderer)
03: Путь воина (Warrior's Fate)
04: Шрам (Scarred)
05: Узурпатор (The Usurper)
06: Рождённый заново (Born Again)
07: Париж (Paris)
08: В атаку! (To the Gates!)
09: Перелом (Breaking Point)
10: Мертвец (The Dead)
-

MediaInfo

Уникальный идентификатор : 240407729964448376354422705243071994468 (0xB4DCD837B5CB462CA3218063E5485A64)Полное имя : G:\Movies\Vikings (Season 3) 720p BDRip\Vikings.s03e01.720p.BluRay.2xRus.Eng.HDCLUB.mkvФормат : MatroskaВерсия формата : Version 4 / Version 2Размер файла : 2,91 ГбайтПродолжительность : 45 м.Общий поток : 9201 Кбит/секНазвание фильма : Vikings 03x01 (Mercenary) - release by messafan for HDCLUBДата кодирования : UTC 2016-01-22 10:09:24Программа кодирования : mkvmerge v6.7.0 ('Back to the Ground') 64bit built on Jan 8 2014 15:10:52Библиотека кодирования : libebml v1.3.0 + libmatroska v1.4.1
ВидеоИдентификатор : 1Формат : AVCФормат/Информация : Advanced Video CodecПрофиль формата : High@L4.1Параметр CABAC формата : ДаПараметр ReFrames формата : 9 кадровИдентификатор кодека : V_MPEG4/ISO/AVCПродолжительность : 45 м.Битрейт : 7269 Кбит/секШирина : 1280 пикселейВысота : 720 пикселейСоотношение сторон : 16:9Режим частоты кадров : ПостоянныйЧастота кадров : 23,976 (24000/1001) кадра/секЦветовое пространство : YUVСубдискретизация насыщенности : 4:2:0Битовая глубина : 8 битТип развёртки : ПрогрессивнаяБит/(Пиксели*Кадры) : 0.329Размер потока : 2,24 Гбайт (77%)Библиотека кодирования : x264 core 142 r2479kMod dd79a61Настройки программы : cabac=1 / ref=9 / deblock=1:-3:-3 / analyse=0x3:0x113 / me=umh / subme=11 / psy=1 / fade_compensate=0.00 / psy_rd=1.05:0.00 / mixed_ref=1 / me_range=32 / chroma_me=1 / trellis=2 / 8x8dct=1 / cqm=0 / deadzone=21,11 / fast_pskip=0 / chroma_qp_offset=-4 / threads=12 / lookahead_threads=3 / sliced_threads=0 / nr=0 / decimate=1 / interlaced=0 / bluray_compat=0 / constrained_intra=0 / fgo=0 / bframes=10 / b_pyramid=2 / b_adapt=2 / b_bias=0 / direct=3 / weightb=1 / open_gop=0 / weightp=2 / keyint=250 / keyint_min=23 / scenecut=40 / intra_refresh=0 / rc_lookahead=40 / rc=2pass / mbtree=0 / bitrate=7269 / ratetol=1.0 / qcomp=0.60 / qpmin=0 / qpmax=69 / qpstep=4 / cplxblur=20.0 / qblur=0.5 / vbv_maxrate=50000 / vbv_bufsize=65000 / nal_hrd=none / filler=0 / ip_ratio=1.30 / pb_ratio=1.25 / aq=1:0.70Язык : EnglishDefault : ДаForced : Нет
Аудио #1Идентификатор : 2Формат : AC-3Формат/Информация : Audio Coding 3Расширение режима : CM (complete main)Параметр Endianness формата : BigИдентификатор кодека : A_AC3Продолжительность : 45 м.Вид битрейта : ПостоянныйБитрейт : 640 Кбит/секКаналы : 6 каналовРасположение каналов : Front: L C R, Side: L R, LFEЧастота : 48,0 КГцЧастота кадров : 31,250 кадров/сек (1536 spf)Метод сжатия : С потерямиРазмер потока : 207 Мбайт (7%)Заголовок : LostFilm DD5.1 @ 640kbpsЯзык : RussianDefault : ДаForced : Нет
Аудио #2Идентификатор : 3Формат : AC-3Формат/Информация : Audio Coding 3Расширение режима : CM (complete main)Параметр Endianness формата : BigИдентификатор кодека : A_AC3Продолжительность : 45 м.Вид битрейта : ПостоянныйБитрейт : 640 Кбит/секКаналы : 6 каналовРасположение каналов : Front: L C R, Side: L R, LFEЧастота : 48,0 КГцЧастота кадров : 31,250 кадров/сек (1536 spf)Метод сжатия : С потерямиРазмер потока : 207 Мбайт (7%)Заголовок : AlexFilm DD5.1 @ 640kbpsЯзык : RussianDefault : НетForced : Нет
Аудио #3Идентификатор : 4Формат : AC-3Формат/Информация : Audio Coding 3Расширение режима : CM (complete main)Параметр Endianness формата : BigИдентификатор кодека : A_AC3Продолжительность : 45 м.Вид битрейта : ПостоянныйБитрейт : 640 Кбит/секКаналы : 6 каналовРасположение каналов : Front: L C R, Side: L R, LFEЧастота : 48,0 КГцЧастота кадров : 31,250 кадров/сек (1536 spf)Метод сжатия : С потерямиРазмер потока : 207 Мбайт (7%)Заголовок : English DD5.1 @ 640kbpsЯзык : EnglishDefault : НетForced : Нет
Меню00:00:00.000 : en:00:00:00.00000:01:47.689 : en:00:01:47.68900:06:59.168 : en:00:06:59.16800:11:26.268 : en:00:11:26.26800:14:48.846 : en:00:14:48.84600:17:30.173 : en:00:17:30.17300:21:28.036 : en:00:21:28.03600:25:31.195 : en:00:25:31.19500:30:11.934 : en:00:30:11.93400:33:13.156 : en:00:33:13.15600:37:57.942 : en:00:37:57.94200:41:15.972 : en:00:41:15.972
-

Скриншоты

Вне форума [Профиль] [ЛС]
Показать сообщения:    
Ответить на тему

Текущее время: Сегодня 21:04

Часовой пояс: GMT + 3



Вы не можете начинать темы
Вы не можете отвечать на сообщения
Вы не можете редактировать свои сообщения
Вы не можете удалять свои сообщения
Вы не можете голосовать в опросах
Вы не можете прикреплять файлы к сообщениям
Вы не можете скачивать файлы