Сегодня идет свободное скачивание без начисления Download

Секретные материалы / The X-Files / Сезон: 10 / Серии: 1-2 из 6 (Крис Картер, Дэрин Морган, Глен Морган) [2016 г., фантастика, триллер, драма, детектив, WEB-DL 720p] MVO (Jaskier) + Original

Ответить на тему
 
Автор
Сообщение

Omen ®

Стаж: 6 лет 1 месяц

Сообщений: 184308

Торрент-статистика

Пост 28-Янв-2016 21:00

[Цитировать]

Секретные материалы | The X-Files -Оригинальное название: The X-Files
Русское название: Секретные материалы
Год выпуска: 2016
Страна: США
Жанр: фантастика, триллер, драма, детектив
Продолжительность: ~45 минут-Перевод: Профессиональный (многоголосый закадровый) Студия Jaskier
Субтитры: Нет-Режиссёр: Крис Картер, Дэрин Морган, Глен Морган-В ролях: Дэвид Духовны, Джиллиан Андерсон, Митч Пиледжи, Уильям Б. Дэвис, Робби Амелл, Том Брэйдвуд, Дин Хэглунд, Брюс Харвуд, Джоэл МакХэйл, Лорен Эмброуз-Описание: Специальные агенты ФБР, Фокс Малдер и Дана Скалли, снова работают вместе, чтобы расследовать странные и необъяснимые дела, связанные с паранормальными явлениями.-Доп. информация: Голоса с ОРТ-Сэмпл-Качество: WEB-DL 720p
Формат: MKV
Видео кодек: AVC
Аудио кодек: AC3
Видео: AVC, 1280x718 (16:9), 23.976 fps, ~3800 kbps, ~0.124 bit/pixel-Аудио 1: Dolby AC3, 48 kHz, 6 ch, 384 kbps Русский
Аудио 2: Dolby AC3, 48 kHz, 6 ch, 384 kbps Оригинал (Английский)-

MediaInfo

Код:
General
Unique ID                      : 223458790369700003839295182025936920154 (0xA81C98FA68FF0CFAAB9053DC70A8DE5A)
Complete name                  : Z:\HD\The X-Files. Season 10 (WEB-DL l 720p l Jaskier)\The.X-Files.S10E01.720p.WEB-DL.DD5.1.H264-JASKiER.mkv
Format                         : Matroska
Format version                 : Version 1
File size                      : 1.46 GiB
Duration                       : 44mn 51s
Overall bit rate               : 4 672 Kbps
Movie name                     : The.X-Files.S10E01.720p.WEB-DL.DD5.1.H264-RARBG
Encoded date                   : UTC 2016-01-28 13:27:21
Writing application            : mkvmerge v2.3.0 ('Freak U') built on Sep  8 2008 18:32:16
Writing library                : libebml v0.7.7 + libmatroska v0.8.1
Attachment                     : Yes / Yes / Yes / Yes
Video
ID                             : 1
Format                         : AVC
Format/Info                    : Advanced Video Codec
Format profile                 : High@L3.1
Format settings, CABAC         : No
Format settings, ReFrames      : 2 frames
Codec ID                       : V_MPEG4/ISO/AVC
Duration                       : 44mn 51s
Bit rate                       : 3 811 Kbps
Width                          : 1 280 pixels
Height                         : 718 pixels
Display aspect ratio           : 16:9
Frame rate                     : 23.976 fps
Color space                    : YUV
Chroma subsampling             : 4:2:0
Bit depth                      : 8 bits
Scan type                      : Progressive
Bits/(Pixel*Frame)             : 0.173
Stream size                    : 1.19 GiB (82%)
Title                          : The.X-Files.S10E01.720p.WEB-DL.DD5.1.H264-RARBG
Language                       : English
Default                        : Yes
Forced                         : No
Color primaries                : BT.709-5, BT.1361, IEC 61966-2-4, SMPTE RP177
Transfer characteristics       : BT.709-5, BT.1361
Matrix coefficients            : BT.709-5, BT.1361, IEC 61966-2-4 709, SMPTE RP177
Audio #1
ID                             : 2
Format                         : AC-3
Format/Info                    : Audio Coding 3
Mode extension                 : CM (complete main)
Format settings, Endianness    : Big
Codec ID                       : A_AC3
Duration                       : 44mn 51s
Bit rate mode                  : Constant
Bit rate                       : 384 Kbps
Channel(s)                     : 6 channels
Channel positions              : Front: L C R, Side: L R, LFE
Sampling rate                  : 48.0 KHz
Bit depth                      : 16 bits
Compression mode               : Lossy
Stream size                    : 123 MiB (8%)
Language                       : Russian
Default                        : Yes
Forced                         : No
Audio #2
ID                             : 3
Format                         : AC-3
Format/Info                    : Audio Coding 3
Mode extension                 : CM (complete main)
Format settings, Endianness    : Big
Codec ID                       : A_AC3
Duration                       : 44mn 51s
Bit rate mode                  : Constant
Bit rate                       : 384 Kbps
Channel(s)                     : 6 channels
Channel positions              : Front: L C R, Side: L R, LFE
Sampling rate                  : 48.0 KHz
Bit depth                      : 16 bits
Compression mode               : Lossy
Stream size                    : 123 MiB (8%)
Language                       : English
Default                        : No
Forced                         : No
Text
ID                             : 4
Format                         : UTF-8
Codec ID                       : S_TEXT/UTF8
Codec ID/Info                  : UTF-8 Plain Text
Default                        : No
Forced                         : No
[/spoiler]

Скриншоты

Внимание! Раздача ведётся путём добавления новых серий.

Внимание! Раздача ведётся путём добавления новых серий; при каждом добавлении создётся новый торрент. Чтобы начать докачку новой серии, пользователям необходимо сделать следующее:
  • Остановить скачивание.
  • Удалить старый торрент у себя из клиента (старые серии удалять не надо).
  • Скачать новый торрент и запустить его у себя в клиенте вместо старого, при этом указать клиенту путь в старую папку куда и должно происходить скачивание новых серий.
    Ваш клиент при этом должен произвести хеширование (проверку) старой папки (если не производит сам - помогите ему сделать это), и будет докачивать только те серии которых у вас ещё нет. Старые серии при этом не удаляются, а продолжают раздаваться!
    Eсли вы уже удалили старые серии, то предотвратить повторную закачку старых серий можно, отжав галочку в соответсвующих местах при запуске нового торрента. По возможности, желательно не удалять старые серии как можно дольше чтобы релизёр не столько продолжал раздавать старые серии, а смог сконцентрироваться на новых.

Ссылка на предыдущие и альтернативные раздачи

http:///*spam*//forum/tracker.php?f=189,2366&nm=The+X+Files
Вне форума [Профиль] [ЛС]
Похожие темы
Форум Тема Автор Торрент Отв. Посл. сообщение
./templates/default/images/folder_dl.gif Обучающее видео [Profileschool] Алексей Шадрин | Секреты современного искусства - Марк Шагал (2015) PCRec Omen
1 | 0

0 | 1384

33

2015-04-06 16:23
Omen Последнее
./templates/default/images/folder_dl.gif Обучающее видео [Profileschool] | Секреты цветокоррекции слайдов и негативов (2015) PCRec [H.264/1080p] Omen
1 | 0

0 | 1427

27

2015-08-19 13:10
Omen Последнее
./templates/default/images/folder_dl.gif Обучающее видео Udemy | Полный курс по кибербезопасности: Секреты хакеров! [Часть 1-7] (2017) PCRec [H.264/720p-LQ] Omen
1 | 0

4 | 1929

39

2018-02-21 22:49
XP1971 Последнее
./templates/default/images/folder_dl.gif Обучающее видео Екатерина Штерн и Марина Ильина | Вебинар 10 секретов успешной съемки (2016) PCRec [H.264/720p] }{@R0N
1 | 0

0 | 495

5

2016-09-22 19:00
}{@R0N Последнее
./templates/default/images/folder_dl.gif Обучающее видео Сергей Патин | Секреты создания шикарных фотокниг 2.0 (2016) [unpacked] XP1971
1 | 0

0 | 3891

16

2017-06-15 15:26
XP1971 Последнее
./templates/default/images/folder_dl.gif Психология, Тренинг, Саморазвитие Антон Могучий | Развитие интеллекта, внимания, памяти. Секретные методы спецслужб (2018) [PDF] }{@R0N
1 | 0

0 | 600

3

2018-08-09 16:15
}{@R0N Последнее
Показать сообщения:    
Ответить на тему

Текущее время: Сегодня 19:17

Часовой пояс: GMT + 3



Вы не можете начинать темы
Вы не можете отвечать на сообщения
Вы не можете редактировать свои сообщения
Вы не можете удалять свои сообщения
Вы не можете голосовать в опросах
Вы не можете прикреплять файлы к сообщениям
Вы не можете скачивать файлы