Сегодня идет свободное скачивание без начисления Download

Сверхъестественное / Supernatural / Сезон: 11 / Серии: 10-11 из 23 (Филип Сгриккиа, Джеймс Л. Конуэй, Дженсен Эклс) [2016, ужасы, фэнтези, триллер, драма, детектив, HDTVRip] VO (LevshaFilm) + Original + Sub (Rus)

Ответить на тему
 
Автор
Сообщение

Omen ®

Стаж: 5 лет 10 месяцев

Сообщений: 184329

Торрент-статистика

Пост 28-Янв-2016 18:33

[Цитировать]

Сверхъестественное / Supernatural
Год выпуска: 2016
Страна: США
Жанр: ужасы, фэнтези, триллер, драма, детектив
Продолжительность: ~ 00:43:00
Перевод: Любительский (одноголосый закадровый) | LevshaFilm
Режиссёр: Филип Сгриккиа, Джеймс Л. Конуэй, Дженсен Эклс
В ролях: Джаред Падалеки, Дженсен Эклс, Джим Бивер, Миша Коллинз, Джеффри Дин Морган, Женевьев Падалеки, Марк Шеппард, Синди Сэмпсон, Саманта Феррис, Митч Пилледжи.
Описание: Сериал рассказывает о приключениях братьев Сэма и Дина Винчестеров, которые путешествуют по Соединённым Штатам на чёрном автомобиле Chevrolet Impala 1967 года, расследуют паранормальные явления, многие из которых основаны на американских городских легендах и фольклоре, и сражаются с порождениями зла, такими как демоны и призраки.

Качество: HDTVRip
Формат: AVI
Видео: 720x400 (1.80:1), 23.976 fps, XviD build 50 ~1022 kbps avg, 0.15 bit/pixel
Аудио #1: Rus, 48.000 kHz, MP3, 2 ch, ~192.00 kbps avg [LevshaFilm]
Аудио #2: Eng, 48.000 kHz, MP3, 2 ch, ~192.00 kbps avg [Оригинал]
Субтитры: Русские (.srt) отдельным файлом

MediaInfo

Общее
Полное имя : D:\TORRENT\Supernatural.S11.HDTVRip.LevshaFilm\Supernatural.S11E10.HDTVRip.LevshaFilm.avi
Формат : AVI
Формат/Информация : Audio Video Interleave
Размер файла : 432 Мбайт
Продолжительность : 42 м.
Общий поток : 1421 Кбит/сек
Программа кодирования : VirtualDubMod 1.5.10.2 (build 2540/release)
Библиотека кодирования : VirtualDubMod build 2540/release
Видео
Идентификатор : 0
Формат : MPEG-4 Visual
Профиль формата : Advanced Simple@L5
Параметр BVOP формата : 2
Параметр QPel формата : Нет
Параметр GMC формата : Без точки перехода
Параметр матрицы формата : Default (MPEG)
Идентификатор кодека : XVID
Идентификатор кодека/Подсказка : XviD
Продолжительность : 42 м.
Битрейт : 1023 Кбит/сек
Ширина : 720 пикселей
Высота : 400 пикселей
Соотношение сторон : 16:9
Частота кадров : 23,976 кадра/сек
Цветовое пространство : YUV
Субдискретизация насыщенности : 4:2:0
Битовая глубина : 8 бит
Тип развёртки : Прогрессивная
Метод сжатия : С потерями
Бит/(Пиксели*Кадры) : 0.148
Размер потока : 311 Мбайт (72%)
Библиотека кодирования : XviD 1.2.1 (UTC 2008-12-04)
Аудио #1
Идентификатор : 1
Формат : MPEG Audio
Версия формата : Version 1
Профиль формата : Layer 3
Идентификатор кодека : 55
Идентификатор кодека/Подсказка : MP3
Продолжительность : 42 м.
Вид битрейта : Постоянный
Битрейт : 192 Кбит/сек
Каналы : 2 канала
Частота : 48,0 КГц
Метод сжатия : С потерями
Размер потока : 58,3 Мбайт (14%)
Выравнивание : Соединение по промежуткам
Продолжительность промежутка : 42 мс. (1,00 видеокадр)
Время предзагрузки промежутка : 504 мс.
Библиотека кодирования : LAME3.99r
Настройки программы : -m s -V 4 -q 2 -lowpass 18.6 -b 192
Аудио #2
Идентификатор : 2
Формат : MPEG Audio
Версия формата : Version 1
Профиль формата : Layer 3
Идентификатор кодека : 55
Идентификатор кодека/Подсказка : MP3
Продолжительность : 42 м.
Вид битрейта : Постоянный
Битрейт : 192 Кбит/сек
Каналы : 2 канала
Частота : 48,0 КГц
Метод сжатия : С потерями
Размер потока : 58,3 Мбайт (14%)
Выравнивание : Соединение по промежуткам
Продолжительность промежутка : 42 мс. (1,00 видеокадр)
Время предзагрузки промежутка : 504 мс.
Библиотека кодирования : LAME3.99r
Настройки программы : -m s -V 4 -q 2 -lowpass 18.6 -b 192

Скриншоты

Внимание! Раздача ведётся путём добавления новых серий

Внимание! Раздача ведётся путём добавления новых серий; при каждом добавлении создаётся новый торрент. Чтобы начать докачку новой серии, пользователям необходимо сделать следующее:
(1) остановить скачивание,
(2) удалить старый торрент у себя из клиента (старые серии удалять не надо),
(3) скачать новый торрент и запустить его у себя в клиенте вместо старого, при этом указать клиенту путь в старую папку куда и должно происходить скачивание новых серий.
Ваш клиент при этом должен произвести хеширование (проверку) старой папки (если не производит сам - помогите ему сделать это), и будет докачивать только те серии которых у вас ещё нет. Старые серии при этом не удаляются, а продолжают раздаваться!
Eсли вы уже удалили старые серии, то предотвратить повторную закачку старых серий можно, отжав галочку в соответствующих местах при запуске нового торрента. По возможности, желательно не удалять старые серии как можно дольше, чтобы релизёр не столько продолжал раздавать старые серии, а смог сконцентрироваться на новых.
Внимание! Раздача с часу ночи до 7 утра (мск)
Вне форума [Профиль] [ЛС]
Показать сообщения:    
Ответить на тему

Текущее время: Сегодня 10:27

Часовой пояс: GMT + 3



Вы не можете начинать темы
Вы не можете отвечать на сообщения
Вы не можете редактировать свои сообщения
Вы не можете удалять свои сообщения
Вы не можете голосовать в опросах
Вы не можете прикреплять файлы к сообщениям
Вы не можете скачивать файлы