Сегодня идет свободное скачивание без начисления Download

Волшебники / The Magicians / Сезон: 1 / Серии: 1-2 из 12 (Скотт Смит, Майк Кэхилл, Ян Элиасберг) [2015 г., Детектив, драма, ужасы, фэнтези, HDTVRip 720p] MVO (Jaskier) + Original

Ответить на тему
 
Автор
Сообщение

Omen ®

Стаж: 6 лет 1 месяц

Сообщений: 184308

Торрент-статистика

Пост 28-Янв-2016 15:03

[Цитировать]

Волшебники | The Magicians -Оригинальное название: The Magicians
Русское название: Волшебники
Год выпуска: 2015
Страна: США
Жанр: Детектив, Драма, Ужасы, Фэнтези
Продолжительность: ~50 минут-Перевод: Профессиональный (многоголосый закадровый) Студия Jaskier
Субтитры: Нет-Режиссёр: Скотт Смит, Майк Кэхилл, Ян Элиасберг-В ролях: Эсме Бьянко, Стелла Маив, Джейсон Ральф, Майкл Кэссиди, Саммер Бишил, Дэвид Колл, Рик Уорси, Темби Лок, Арджун Гупта, Хейл Эйплмен-Описание: В один прекрасный момент несколько 20-летних подростков удивительным образом оказываются в университете магии Брэйкбиллз, находящемся в Нью-Йорке. Парни делают необычное открытие, вносящее кардинальные перемены в их жизнь: как оказалось, умопомрачительный мир, о котором они так часто читали в детские годы, действительно есть. Не говоря уже о том, что, у всех у них есть собственные волшебные возможности. Но скоро обнаруживается, что жители данной скрытой от постороннего взгляда местности представляют собой гигантскую опасность для всего населения Земли.-Сэмпл-Качество: HDTV 720p
Формат: MKV
Видео кодек: AVC
Аудио кодек: AC3
Видео: AVC, 1280x720 (16:9), 23.976 fps, ~3228 kbps, ~0.124 bit/pixel-Аудио 1: Dolby AC3, 48 kHz, stereo,192 kbps Русский
Аудио 2: Dolby AC3, 48 kHz, 6 ch, 384 kbps Оригинал (Английский)-

MediaInfo

Код:
General
Unique ID                   : 254867703459839084162639981467992606811 (0xBFBDBBF434F51AC0BBD255607750485B)
Complete name               : Z:\HD\The Magicians. 1 season (HDTVRip l 720p l Jaskier)\The.Magicians.S01E01.720p.HDTV.x264-JASKIER.mkv
Format                      : Matroska
Format version              : Version 1
File size                   : 1.22 GiB
Duration                    : 51mn 38s
Overall bit rate            : 3 383 Kbps
Encoded date                : UTC 2015-12-22 23:09:21
Writing application         : mkvmerge v2.3.0 ('Freak U') built on Sep  8 2008 18:32:16
Writing library             : libebml v0.7.7 + libmatroska v0.8.1
Video
ID                          : 1
Format                      : AVC
Format/Info                 : Advanced Video Codec
Format profile              : High@L4.1
Format settings, CABAC      : Yes
Format settings, ReFrames   : 5 frames
Codec ID                    : V_MPEG4/ISO/AVC
Duration                    : 51mn 38s
Bit rate                    : 2 739 Kbps
Width                       : 1 280 pixels
Height                      : 720 pixels
Display aspect ratio        : 16:9
Frame rate mode             : Constant
Frame rate                  : 23.976 fps
Color space                 : YUV
Chroma subsampling          : 4:2:0
Bit depth                   : 8 bits
Scan type                   : Progressive
Bits/(Pixel*Frame)          : 0.124
Stream size                 : 1 012 MiB (81%)
Writing library             : x264 core 148 r2638 7599210
Encoding settings           : cabac=1 / ref=5 / deblock=1:0:0 / analyse=0x3:0x113 / me=umh / subme=8 / psy=1 / psy_rd=1.00:0.00 / mixed_ref=1 / me_range=16 / chroma_me=1 / trellis=1 / 8x8dct=1 / cqm=0 / deadzone=21,11 / fast_pskip=1 / chroma_qp_offset=-2 / threads=22 / lookahead_threads=3 / sliced_threads=0 / nr=0 / decimate=1 / interlaced=0 / bluray_compat=0 / constrained_intra=0 / bframes=3 / b_pyramid=2 / b_adapt=2 / b_bias=0 / direct=3 / weightb=1 / open_gop=0 / weightp=2 / keyint=250 / keyint_min=23 / scenecut=40 / intra_refresh=0 / rc_lookahead=50 / rc=crf / mbtree=1 / crf=18.0 / qcomp=0.60 / qpmin=0 / qpmax=69 / qpstep=4 / ip_ratio=1.40 / aq=1:1.00
Language                    : English
Default                     : Yes
Forced                      : No
Color range                 : Limited
Matrix coefficients         : BT.709
Audio #1
ID                          : 2
Format                      : AC-3
Format/Info                 : Audio Coding 3
Mode extension              : CM (complete main)
Format settings, Endianness : Big
Codec ID                    : A_AC3
Duration                    : 51mn 38s
Bit rate mode               : Constant
Bit rate                    : 192 Kbps
Channel(s)                  : 2 channels
Channel positions           : Front: L R
Sampling rate               : 48.0 KHz
Compression mode            : Lossy
Stream size                 : 70.9 MiB (6%)
Language                    : Russian
Default                     : Yes
Forced                      : No
Audio #2
ID                          : 3
Format                      : AC-3
Format/Info                 : Audio Coding 3
Mode extension              : CM (complete main)
Format settings, Endianness : Big
Codec ID                    : A_AC3
Duration                    : 51mn 38s
Bit rate mode               : Constant
Bit rate                    : 384 Kbps
Channel(s)                  : 6 channels
Channel positions           : Front: L C R, Side: L R, LFE
Sampling rate               : 48.0 KHz
Compression mode            : Lossy
Stream size                 : 142 MiB (11%)
Language                    : English
Default                     : No
Forced                      : No

Скриншоты

Внимание! Раздача ведётся путём добавления новых серий.

Внимание! Раздача ведётся путём добавления новых серий; при каждом добавлении создётся новый торрент. Чтобы начать докачку новой серии, пользователям необходимо сделать следующее:
  • Остановить скачивание.
  • Удалить старый торрент у себя из клиента (старые серии удалять не надо).
  • Скачать новый торрент и запустить его у себя в клиенте вместо старого, при этом указать клиенту путь в старую папку куда и должно происходить скачивание новых серий.
    Ваш клиент при этом должен произвести хеширование (проверку) старой папки (если не производит сам - помогите ему сделать это), и будет докачивать только те серии которых у вас ещё нет. Старые серии при этом не удаляются, а продолжают раздаваться!
    Eсли вы уже удалили старые серии, то предотвратить повторную закачку старых серий можно, отжав галочку в соответсвующих местах при запуске нового торрента. По возможности, желательно не удалять старые серии как можно дольше чтобы релизёр не столько продолжал раздавать старые серии, а смог сконцентрироваться на новых.

Ссылка на предыдущие и альтернативные раздачи

Вне форума [Профиль] [ЛС]
Похожие темы
Форум Тема Автор Торрент Отв. Посл. сообщение
./templates/default/images/folder_dl.gif Обучающее видео Елена Минакова | Волшебные коллажи в Adobe Photoshop VIP (2016) PCRec [H.264/720p] Omen
1 | 0

0 | 817

8

2016-03-10 00:07
Omen Последнее
Показать сообщения:    
Ответить на тему

Текущее время: Сегодня 20:13

Часовой пояс: GMT + 3



Вы не можете начинать темы
Вы не можете отвечать на сообщения
Вы не можете редактировать свои сообщения
Вы не можете удалять свои сообщения
Вы не можете голосовать в опросах
Вы не можете прикреплять файлы к сообщениям
Вы не можете скачивать файлы