Сегодня идет свободное скачивание без начисления Download

Смерть в раю / Death in Paradise / Сезон: 5 / Серии: 1 (8) (Эдвард Беннетт) [2016, детектив, комедия, HDTVRip 720p] DVO (FocusStudio)

Ответить на тему
 
Автор
Сообщение

Omen ®

Стаж: 5 лет 6 месяцев

Сообщений: 186946

Торрент-статистика

Пост 28-Янв-2016 09:03

[Цитировать]

-Смерть в раю / Death in Paradise
5 сезон, 1 серия
- Год выпуска: 2016
Страна:Великобритания, Франция
Жанр: детектив, комедия
Продолжительность: 1 х ~59 мин
Перевод: профессиональный двухголосый закадровый (FocusStudio)-Режиссёр: Эдвард Беннетт-В ролях: Крис Маршалл, Сара Мартинс, Дэнни Джон-Джулс, Гари Карр, Элизабет Буржин, Бен Миллер, Дон Уоррингтон, Крис Маршалл, Эдриан Данбар, Морвен Кристи, Йохан Майерс...-Описание: Детективный сериал о инспекторе Лондонского управления полиции, Хэмфри Гудмане, которого отправили вести расследования в одно из самых жарких мест на земле — карибский остров Сент-Мари.-Релиз: - --Качество: HDTVRip 720p
Формат: MKV
Видео: AVC, 1280x720 (16:9), 25 fps, ~4000 kbps
Аудио Rus: AC3, 48 kHz, 2 ch, 192 kbps, CBR
Аудио Eng: AC3, 48 kHz, 2 ch, 192 kbps, CBR
Субтитры: отсутствуют-

Скриншоты

MediaInfo

Format : Matroska
Format version : Version 4 / Version 2
File size : 1.87 GiB
Duration : 59mn 0s
Overall bit rate : 4 537 Kbps
Movie name : Death in Paradise 5x1 @ FocusStudio
Encoded date : UTC 2016-01-27 20:32:33
Writing application : mkvmerge v8.2.0 ('World of Adventure') 64bit
Writing library : libebml v1.3.1 + libmatroska v1.4.2
Video
ID : 1
Format : AVC
Format/Info : Advanced Video Codec
Format profile : High@L4
Format settings, CABAC : Yes
Format settings, ReFrames : 9 frames
Codec ID : V_MPEG4/ISO/AVC
Duration : 59mn 0s
Bit rate : 4 063 Kbps
Width : 1 280 pixels
Height : 720 pixels
Display aspect ratio : 16:9
Frame rate mode : Constant
Frame rate : 25.000 fps
Color space : YUV
Chroma subsampling : 4:2:0
Bit depth : 8 bits
Scan type : Progressive
Bits/(Pixel*Frame) : 0.176
Stream size : 1.67 GiB (90%)
Writing library : x264 core 148 r0+2717 2732536 t_mod_Custom [8-bit@all X86_64]
Encoding settings : cabac=1 / ref=9 / deblock=1:-3:-3 / analyse=0x3:0x133 / me=umh / subme=11 / psy=1 / fade_compensate=0.00 / psy_rd=0.95:0.00 / mixed_ref=1 / me_range=48 / chroma_me=1 / trellis=2 / 8x8dct=1 / cqm=0 / deadzone=21,11 / fast_pskip=0 / chroma_qp_offset=-2 / threads=12 / lookahead_threads=3 / sliced_threads=0 / nr=0 / decimate=0 / interlaced=0 / bluray_compat=0 / constrained_intra=0 / fgo=0 / bframes=10 / b_pyramid=2 / b_adapt=2 / b_bias=0 / direct=3 / weightb=1 / open_gop=0 / weightp=2 / keyint=250 / keyint_min=25 / scenecut=40 / intra_refresh=0 / rc=crf / mbtree=0 / crf=17.0000 / qcomp=0.80 / qpmin=0:0:0 / qpmax=69:69:69 / qpstep=4 / ip_ratio=1.30 / pb_ratio=1.30 / aq=3:0.80 / aq-sensitivity=10.00 / aq-factor=1.00:1.00:1.00 / aq2=0 / aq3=0
Language : English
Default : Yes
Forced : No
Color range : Limited
Matrix coefficients : BT.709
Audio #1
ID : 2
Format : AC-3
Format/Info : Audio Coding 3
Mode extension : CM (complete main)
Format settings, Endianness : Big
Codec ID : A_AC3
Duration : 59mn 0s
Bit rate mode : Constant
Bit rate : 192 Kbps
Channel(s) : 2 channels
Channel positions : Front: L R
Sampling rate : 48.0 KHz
Compression mode : Lossy
Stream size : 81.0 MiB (4%)
Title : FocusStudio
Language : Russian
Default : Yes
Forced : No
Audio #2
ID : 3
Format : AC-3
Format/Info : Audio Coding 3
Mode extension : CM (complete main)
Format settings, Endianness : Big
Codec ID : A_AC3
Duration : 59mn 0s
Bit rate mode : Constant
Bit rate : 192 Kbps
Channel(s) : 2 channels
Channel positions : Front: L R
Sampling rate : 48.0 KHz
Compression mode : Lossy
Stream size : 81.0 MiB (4%)
Language : English
Default : No
Forced : No

Раздача ведется путем добавления новых серий

Когда раздача ведётся путём добавления новых серий, при каждом добавлении создётся новый торрент. Чтобы начать докачку новой серии, пользователям необходимо сделать следующее:
(1) остановить скачивание,
(2) удалить старый торрент у себя из клиента (старые серии удалять не надо),
(3) скачать новый торрент и запустить его у себя в клиенте вместо старого, при этом указать клиенту путь в старую папку, куда и должно происходить скачивание новых серий.
Ваш клиент при этом должен произвести хеширование (проверку) старой папки (если не производит сам - помогите ему сделать это), и будет докачивать только те серии, которых у вас ещё нет. Старые серии при этом не удаляются, а продолжают раздаваться!
Eсли вы уже удалили старые серии, то предотвратить повторную закачку старых серий можно, отжав галочку в соответствующих местах при запуске нового торрента. По возможности, желательно не удалять старые серии как можно дольше, чтобы релизёр не столько продолжал раздавать старые серии, а смог сконцентрироваться на новых.
-
Вне форума [Профиль] [ЛС]
Похожие темы
Форум Тема Автор Торрент Отв. Посл. сообщение
./templates/default/images/folder_dl.gif Приключения, детектив, боевик, триллер Борис Акунин | Смерть на брудершафт (Фильма 1-10) [2010-2012] [MP3] Omen
1 | 0

0 | 2300

39

2013-01-14 20:57
Omen Последнее
./templates/default/images/folder_dl.gif Фантастика, фэнтези, ужасы, мистика Джеймс Дэшнер | Лекарство от смерти (2018) [MP3] }{@R0N
1 | 0

0 | 797

4

2018-01-28 22:22
}{@R0N Последнее
./templates/default/images/folder_dl.gif Новинки (HD|DVD|BD|WEB|TV|SAT|PDTV|-Rip) Бегущий в лабиринте: Лекарство от смерти / Maze Runner: The Death Cure (Уэс Болл) [2018 г., фантастика, боевик, триллер, WEBRip] [MUZOBOZ] Theseus
1 | 0

0 | 289

9

2018-04-06 15:18
Theseus Последнее
Показать сообщения:    
Ответить на тему

Текущее время: Сегодня 17:31

Часовой пояс: GMT + 3



Вы не можете начинать темы
Вы не можете отвечать на сообщения
Вы не можете редактировать свои сообщения
Вы не можете удалять свои сообщения
Вы не можете голосовать в опросах
Вы не можете прикреплять файлы к сообщениям
Вы не можете скачивать файлы