Today is a free download without charge Download

Волшебники / The Magicians / Сезон: 1 / Серии: 1-2 из 12 (Скотт Смит, Майк Кэхилл, Ян Элиасберг) [2016, драма, фентези, HDTVRip-AVC] Original + Rus Subs (N-Team) + Eng Subs

Reply to topic
 
Author
Message

Omen ®

Longevity: 6 years 5 months

Posts: 181112

Торрент-статистика

Post 27-Jan-2016 21:00

[Quote]

Волшебники / The Magicians
Год выпуска: 2016
Страна: США
Жанр: драма, фентези
Продолжительность: ~42 минуты
Перевод: Субтитры N-Team
Режиссёр: Скотт Смит, Майк Кэхилл, Ян Элиасберг
В ролях: Эсме Бьянко, Стелла Маив, Джейсон Ральф, Майкл Кэссиди, Саммер Бишил, Дэвид Колл, Рик Уорси, Темби Лок, Арджун Гупта, Хейл Эйплмен и другие.
Описание: Сериал The Magicians – это экранизация одноименного фантастического романа американского автора Лева Гроссмана.
Молодые люди, слегка за двадцать, изучают в современном Нью-Йорке магию и обнаруживают, что волшебный мир, о котором они читали в детстве, не только реален, но еще и очень опасен.
Сэмпл: http://multi-up.com/1086360
Качество: HDTVRip-AVC
Формат: MP4
Видео: AVC, 720x404 (16:9), 23.976 fps, 833 kbps, 0.119 bit/pixel
Аудио: AAC, 48 KHz, 2 ch, 132 kbps [Eng]
Субтитры: софтсаб(SRT), русские, английские

Список серий

1. Unathorized Magic / Недозволенная магия
2. The Source of Magic / Источник магии

MediaInfo

General
Complete name : D:\Видео\The Magicians Season 1 [N-Team]\The.Magicians.S01E01.mp4
Format : MPEG-4
Format profile : Base Media
Codec ID : isom
File size : 358 MiB
Duration : 51mn 38s
Overall bit rate mode : Variable
Overall bit rate : 969 Kbps
Encoded date : UTC 2015-12-17 04:05:37
Tagged date : UTC 2015-12-17 04:05:37
Video
ID : 2
Format : AVC
Format/Info : Advanced Video Codec
Format profile : High@L3.1
Format settings, CABAC : Yes
Format settings, ReFrames : 5 frames
Codec ID : avc1
Codec ID/Info : Advanced Video Coding
Duration : 51mn 38s
Source duration : 51mn 38s
Bit rate : 833 Kbps
Maximum bit rate : 3 576 Kbps
Width : 720 pixels
Height : 404 pixels
Display aspect ratio : 16:9
Frame rate mode : Constant
Frame rate : 23.976 fps
Color space : YUV
Chroma subsampling : 4:2:0
Bit depth : 8 bits
Scan type : Progressive
Bits/(Pixel*Frame) : 0.119
Stream size : 308 MiB (86%)
Source stream size : 308 MiB (86%)
Writing library : x264 core 148 r2638 7599210
Encoding settings : cabac=1 / ref=5 / deblock=1:0:0 / analyse=0x3:0x113 / me=umh / subme=8 / psy=1 / psy_rd=1.00:0.00 / mixed_ref=1 / me_range=16 / chroma_me=1 / trellis=1 / 8x8dct=1 / cqm=0 / deadzone=21,11 / fast_pskip=1 / chroma_qp_offset=-2 / threads=13 / lookahead_threads=2 / sliced_threads=0 / nr=0 / decimate=1 / interlaced=0 / bluray_compat=0 / constrained_intra=0 / bframes=3 / b_pyramid=2 / b_adapt=2 / b_bias=0 / direct=3 / weightb=1 / open_gop=0 / weightp=2 / keyint=250 / keyint_min=23 / scenecut=40 / intra_refresh=0 / rc_lookahead=50 / rc=crf / mbtree=1 / crf=19.0 / qcomp=0.60 / qpmin=0 / qpmax=69 / qpstep=4 / ip_ratio=1.40 / aq=1:1.00
Encoded date : UTC 2015-12-17 04:03:46
Tagged date : UTC 2015-12-17 04:05:38
Matrix coefficients : BT.709
Color range : Limited
Audio
ID : 1
Format : AAC
Format/Info : Advanced Audio Codec
Format profile : LC
Codec ID : 40
Duration : 51mn 38s
Bit rate mode : Variable
Bit rate : 132 Kbps
Maximum bit rate : 170 Kbps
Channel(s) : 2 channels
Channel positions : Front: L R
Sampling rate : 48.0 KHz
Compression mode : Lossy
Stream size : 48.7 MiB (14%)
Encoded date : UTC 2015-12-17 04:05:37
Tagged date : UTC 2015-12-17 04:05:38

Скриншоты

Внимание! Раздача ведётся путём добавления новых серий

Внимание! Раздача ведётся путём добавления новых серий; при каждом добавлении создётся новый торрент. Чтобы начать докачку новой серии, пользователям необходимо сделать следующее:
-Остановить скачивание.
-Удалить старый торрент у себя из клиента (старые серии удалять не надо).
-Скачать новый торрент и запустить его у себя в клиенте вместо старого, при этом указать клиенту путь в старую папку куда и должно происходить скачивание новых серий.
Ваш клиент при этом должен произвести хеширование (проверку) старой папки (если не производит сам - помогите ему сделать это), и будет докачивать только те серии которых у вас ещё нет. Старые серии при этом не удаляются, а продолжают раздаваться!
Если вы уже удалили старые серии, то предотвратить повторную закачку старых серий можно, отжав галочку в соответствующих местах при запуске нового торрента. По возможности, желательно не удалять старые серии как можно дольше чтобы релизёр не столько продолжал раздавать старые серии, а смог сконцентрироваться на новых.
Other forum [Profile] [PM]
Display posts from previous:    
Reply to topic

The time now is: Today 03:45

All times are GMT + 3 Hours



You cannot post new topics in this forum
You cannot reply to topics in this forum
You cannot edit your posts in this forum
You cannot delete your posts in this forum
You cannot vote in polls in this forum
You cannot attach files in this forum
You cannot download files in this forum