Сегодня идет свободное скачивание без начисления Download

Молокососы / Skins / Сезон: 1 / Серии: 1-9 (9) (Чарльз Мартин, Саймон Мэсси, Джек Клоф) [2007, драма, HDTV 720p] DVO (MTV) + Original + Subs (Rus, Eng)

Ответить на тему
 
Автор
Сообщение

Omen ®

Стаж: 5 лет 6 месяцев

Сообщений: 186946

Торрент-статистика

Пост 27-Янв-2016 18:33

[Цитировать]


«A group of optimistic kids who grab life by the balls»
Год: 2007 (1-й сезон)
Страна: Великобритания
Жанр: драма
Продолжительность: 44:20мин. (серия)
Перевод: профессиональный (двухголосый, закадровый) MTV
Субтитры: русские, английские-Режиссер: Чарльз Мартин, Саймон Мэсси, Джек Клоф, ...
Сценарий: Джэми Бриттейн, Брайан Элсли, Крис Хилл, ...
Продюсер: Брайан Элсли, Джордж Фабер, Чарльз Паттинсон, ...-В главных ролях: Николас Холт / Nicholas Hoult (Tony Stonem), Дев Патель / Dev Patel (Anwar Kharral), Кая Скоделарио / Kaya Scodelario (Effy Stonem), Джозеф Демпси / Joseph Dempsie (Chris Miles), Ханна Мюррэй / Hannah Murray (Cassie Ainsworth), Майк Бэйли / Mike Bailey (Sid Jenkins), Эйприл Пирсон / April Pearson (Michelle Richardson), Ларисса Уилсон / Larissa Wilson (Jal Fazer), Митч Хьюер / Mitch Hewer (Maxxie Oliver), Сиван Моррис / Siwan Morris (Angie), ...-Описание: Они — подростки, дети современной Британии, со своими проблемами и радостями жизни. Переходный возраст, формирование личности, проявление характера. Секс, наркотики, вечеринки и вызов всему сознательному миру. Они не признают правила, мораль и принципы обычной жизни. Они хотят быть независимыми и делать только то, что хочется им самим. Им плевать на порядок и общественные устои. Они — новое поколение.-Качество: HDTV 720p
Формат: MKV
Видео: H.264/AVC, 1280x720 (16:9), 25 fps, 3645 Kbps, 0.158 bit/pixel
Аудио 1: AC-3, 48.0 KHz, 2/0 ch (L,R) CBR, 160 Kbps | Russian [MTV]
Аудио 2: AC-3, 48 kHz, 2/0 ch (L,R) CBR, 384 Kbps | English [Original]
Субтитры: русские, английские (полные, SRT)

MediaInfo:

General
Unique ID : 229157231996945343576661532350811700016 (0xAC6613D7896D85CA86535778A3EF7B30)
Complete name : G:\Skins (UK) [Season 01] HDTV (720p) [MTV]\s01e03. Skins. Jal.mkv
Format : Matroska
Format version : Version 2
File size : 1.30 GiB
Duration : 44mn 18s
Overall bit rate : 4 191 Kbps
Encoded date : UTC 2016-01-25 15:01:59
Writing application : mkvmerge v5.8.0 ('No Sleep / Pillow') built on Sep 2 2012 15:37:04
Writing library : libebml v1.2.3 + libmatroska v1.3.0
Video
ID : 1
Format : AVC
Format/Info : Advanced Video Codec
Format profile : High@L4.1
Format settings, CABAC : Yes
Format settings, ReFrames : 5 frames
Codec ID : V_MPEG4/ISO/AVC
Duration : 44mn 18s
Bit rate : 3 645 Kbps
Width : 1 280 pixels
Height : 720 pixels
Display aspect ratio : 16:9
Frame rate mode : Constant
Frame rate : 25.000 fps
Color space : YUV
Chroma subsampling : 4:2:0
Bit depth : 8 bits
Scan type : Progressive
Bits/(Pixel*Frame) : 0.158
Stream size : 1.10 GiB (85%)
Title : s01e03. Skins. Jal
Writing library : x264 core 112 r1834 a51816a
Encoding settings : cabac=1 / ref=5 / deblock=1:0:0 / analyse=0x3:0x113 / me=umh / subme=7 / psy=1 / psy_rd=1.00:0.00 / mixed_ref=1 / me_range=16 / chroma_me=1 / trellis=1 / 8x8dct=1 / cqm=0 / deadzone=21,11 / fast_pskip=0 / chroma_qp_offset=-2 / threads=6 / sliced_threads=0 / nr=0 / decimate=1 / interlaced=0 / constrained_intra=0 / bframes=3 / b_pyramid=2 / b_adapt=1 / b_bias=0 / direct=1 / weightb=1 / open_gop=0 / weightp=2 / keyint=250 / keyint_min=25 / scenecut=40 / intra_refresh=0 / rc_lookahead=40 / rc=2pass / mbtree=1 / bitrate=3645 / ratetol=1.0 / qcomp=0.60 / qpmin=0 / qpmax=51 / qpstep=4 / cplxblur=20.0 / qblur=0.5 / ip_ratio=1.40 / aq=1:1.00
Language : English
Default : Yes
Forced : No
Audio #1
ID : 2
Format : AC-3
Format/Info : Audio Coding 3
Mode extension : CM (complete main)
Format settings, Endianness : Big
Codec ID : A_AC3
Duration : 44mn 18s
Bit rate mode : Constant
Bit rate : 160 Kbps
Channel(s) : 2 channels
Channel positions : Front: L R
Sampling rate : 48.0 KHz
Frame rate : 31.250 fps (1536 spf)
Compression mode : Lossy
Stream size : 50.7 MiB (4%)
Title : DVO [MTV]
Language : Russian
Default : Yes
Forced : No
Audio #2
ID : 3
Format : AC-3
Format/Info : Audio Coding 3
Mode extension : CM (complete main)
Format settings, Endianness : Big
Codec ID : A_AC3
Duration : 44mn 18s
Bit rate mode : Constant
Bit rate : 384 Kbps
Channel(s) : 2 channels
Channel positions : Front: L R
Sampling rate : 48.0 KHz
Frame rate : 31.250 fps (1536 spf)
Compression mode : Lossy
Delay relative to video : 7ms
Stream size : 122 MiB (9%)
Title : [Original]
Language : English
Default : No
Forced : No
Text #1
ID : 4
Format : UTF-8
Codec ID : S_TEXT/UTF8
Codec ID/Info : UTF-8 Plain Text
Title : Full
Language : Russian
Default : Yes
Forced : No
Text #2
ID : 5
Format : UTF-8
Codec ID : S_TEXT/UTF8
Codec ID/Info : UTF-8 Plain Text
Title : Full
Language : English
Default : No
Forced : No

Описание серий:

1. Tony / Тони
Главный герой серии - Тони, подросток, который язвительно подшучивает над отцом, и прикрывает родную сестру. Родители уверены, что Эффи — примерная школьница, но на самом деле ночи напролет она проводит в компании наркоманов. Тони с утра обзванивает всех своих друзей, становится ясно — он главный в компании.
2. Cassie / Кэсси
Кэсси просыпается в доме Мишель после вечеринки. В толпе спящих она находит Сида и целует его. Ей кажется, что она влюблена, но Сид без ума от Мишель. Дилер Сида, которому он должен деньги за наркотики, — пациент в той же клинике, где проходит лечение Кэсси, больная анорексией. Кэсси за обедом в школьной столовой предупреждает Сида о том, что у торговца наркотиками есть его студенческий билет.
3. Jal / Джэл
Джэл готовится к выступлению в конкурсе «Юный Музыкант Года». Она играет на кларнете. Отец Джэл — знаменитый музыкант, а мать оставила ее, когда та была совсем маленькой. На вечеринке гости смотрели только на Джэл, впервые надевшую откровенное платье, из-за чего очень сильно разозлилась Мишель, привыкшая быть в центре внимания. Она увидела, как ее парень Тони флиртовал с Эбигейл, что еще больше усугубило ситуацию.
4. Chris / Крис
Мать Криса уехала навсегда, оставив его одного дома с запиской и тысячей фунтов в кармане. Кэсси назначает Сиду свидание. Крис дает понять своей учительнице по психологии Энджи, что влюблен в нее.
5. Sid / Сид
У Сида есть два дня, чтобы закончить его курсовую работу по истории. Тони и Мишель расходятся. Мишель обвиняет Сида в том, что он знал, что Тони изменяет ей, и ничего не сказал. В баре Сид приглашает ее на танец, но вмешивается Тони, в очередной раз демонстрируя свою власть. Сиду удается разбить сердце Кэсси, и она пытается совершить самоубийство. Сид едет в больницу, где встречает Джэл. Она сообщает ему, что с Кэсси все будет хорошо.
6. Maxxie & Anwar / Макси и Анвар
Ребята уезжают на экскурсию в Россию. Тони приказывает Сиду спрятать наркотики. чтобы пройти таможню. Анвар ссорится с Макси. Как мусульманину, ему неприятно осозновать, что его лучший друг — гей. Анвар встречает местную девченку по имени Анка, которая лишает его девственности. Однако Анка оказалась замужем, и ее супруг врывается в отель с ружьем, чтобы найти ее любовника. Крис соблазняет свою учительницу Энджи.
7. Michelle / Мишель
Мишель окончательно рвет отношения с Тони после того, как увидела его в постели с Макси. Джэл признается Мишель, что Тони обманывал ее все время. Сид понимает, что влюблен в Кэсси. Мишель встречает Джоша (старшего брата Эбигейл) и они начинают встречаться. Тони не смог с этим смириться и решил во чтобы то ни стало разрушить их отношения. В конце концов ему это удается, но Мишель все равно отказывает ему.
8. Effy / Эффи
Тони пытается найти свою сестру Эффи, Сид соглашается помочь. В итоге они ссорятся, и Сид признается, что от Тони все отвернулись из-за его бесконечных манипуляций другими людьми. Сид встречается с Кэсси в баре, но во время их первого поцелуя звонит Мишель, и сообщает, что Тони пропал. Тони находит Эффи на вечеринке, без сознания от передозировки наркотиков. За всем этим стоит бывший парень Мишель Джош, который хочет отомстить ему. Друзья Джоша не дают Тони вызвать скорую. Тони приходится умолять его. Родители Тони считают, что это брат дал ей наркотики.
9. Finale / Финальная серия
Кэсси вместе с семьей переезжает в Шотландию — после попытки самоубийства она проводила все время в клинике для душевнобольных. Сид отчаянно пытается найти ее, чтобы сообщить о своих чувствах. Эффи приходит в себя, но отказывается говорить с кем-либо. Тони звонит Мишель, пытаясь вернуть ее — он впервые признается своей девушке в любви. Во время телефонного разговора он стоит на проезжей части, и не замечает, как на него с огромной скоростью движется автобус...

Доп.информация:

При просмотре с русской дорожкой, очень редко, могут встречаться не озвученные слова, т.к. видео с зарубежного источника, а русский звук с нашего. А, как известно, у нашего эфира случается выпадение некоторых кадров.
Так же, в 6-й серии, начиная с 31мин. встака одноголосой (любительской) озвучки.
Скриншоты:
Вне форума [Профиль] [ЛС]
Показать сообщения:    
Ответить на тему

Текущее время: Сегодня 02:30

Часовой пояс: GMT + 3



Вы не можете начинать темы
Вы не можете отвечать на сообщения
Вы не можете редактировать свои сообщения
Вы не можете удалять свои сообщения
Вы не можете голосовать в опросах
Вы не можете прикреплять файлы к сообщениям
Вы не можете скачивать файлы