Сегодня идет свободное скачивание без начисления Download

Даг / Dag / Сезон: 2 / Серии: 1-8 (10) (Эйстейн Карлсен, Тува Новотны) [2011, комедия, драма, WEB-DL 720p] VO (Datynet) + Original + Rus Subs

Ответить на тему
 
Автор
Сообщение

Omen ®

Стаж: 5 лет 7 месяцев

Сообщений: 185412

Торрент-статистика

Пост 27-Янв-2016 18:00

[Цитировать]

Даг / DagСезон 2 -Год выпуска: 2011
Страна: Норвегия
Жанр: комедия, драма
Продолжительность: 00:23:00-Озвучка: Любительский (одноголосый закадровый) datynet
Оригинальная дорожка: норвежская
Перевод: Ольга Тропашко, Станислав Бельков
Субтитры: русские-Режиссёр: Ёйстейн Карлсен, Тува Новотны
Сценарий: Ёйстейн Карлсен, Кристофер Шо
Операторская работа: Пауль Хогенруд, Халлгрим Хауг-В ролях: Атле Антонсен, Тува Новотны, Андерс Баасмо Кристиансен, Агнес Киттелсен, Ине Ф. Джэнсен, Рольф Лассгорд, Силье Торп, Кайя Варйорд, Ибен Хьейле, Йоахим Кальмейер, Ребека Хемсе, Йон Ёигарден, Тронд Эспен Сейм, Миккель Братт Сильсет, Сверр Хорге, Янник Бонневье-Описание: Знакомьтесь, это психотерапевт Даг. Он твердо убежден, что человек должен жить совершенно один, и этими взглядами он счастлив поделиться с пациентами! 90% супружеских пар, ходивших к нему на прием, подали на развод. Даг ведет тихую, ничем не примечательную жизнь, и единственное, что он любит больше одиночества, - это Валиум. Но мирной жизни скоро настанет конец - бесповоротно!- --Качество: WEB-DL 720p
Формат: MKV
Видео кодек: H.264
Аудио кодек: MP3, AC3
Субтитры: русские (softsub)
Видео: 1280x720 (16:9), 25.000 fps, 4900 kbps, 0.228 bit/pixel
Аудио 1: 48 kHz, MP3, 2/0 (L,R) ch, 192 kbps | Russian | VO (datynet)
Аудио 2: 48 kHz, AC3, 2/0 (L,R) ch, 448 kbps | Norwegian | Original

MediaInfo:

Общее
Уникальный идентификатор : 237300406890852081318914394346558403507 (0xB286655CA0B1BBEDB2CDA139861533B3)
Полное имя D:\Dag (Season 02)\s02e01.Dag.mkv
Формат : Matroska
Версия формата : Version 2
Размер файла : 927 Мбайт
Продолжительность : 23 м.
Общий поток : 5537 Кбит/сек
Дата кодирования : UTC 2015-10-12 23:07:33
Программа кодирования : mkvmerge v5.8.0 ('No Sleep / Pillow') built on Sep 2 2012 15:37:04
Библиотека кодирования : libebml v1.2.3 + libmatroska v1.3.0
Видео
Идентификатор : 1
Формат : AVC
Формат/Информация : Advanced Video Codec
Профиль формата : High@L4.1
Параметр CABAC формата : Да
Параметр ReFrames формата : 5 кадров
Идентификатор кодека : V_MPEG4/ISO/AVC
Продолжительность : 23 м.
Битрейт : 4905 Кбит/сек
Ширина : 1280 пикселей
Высота : 720 пикселей
Соотношение сторон : 16:9
Режим частоты кадров : Постоянный
Частота кадров : 25,000 кадров/сек
Цветовое пространство : YUV
Субдискретизация насыщенности : 4:2:0
Битовая глубина : 8 бит
Тип развёртки : Прогрессивная
Бит/(Пиксели*Кадры) : 0.213
Размер потока : 801 Мбайт (86%)
Заголовок : s02e01.Dag. Over skyene er himmelen alltid gra
Библиотека кодирования : x264 core 120 r2120 0c7dab9
Настройки программы : cabac=1 / ref=5 / deblock=1:0:0 / analyse=0x3:0x133 / me=umh / subme=7 / psy=1 / psy_rd=1.00:0.00 / mixed_ref=1 / me_range=16 / chroma_me=1 / trellis=1 / 8x8dct=1 / cqm=0 / deadzone=21,11 / fast_pskip=0 / chroma_qp_offset=-2 / threads=9 / sliced_threads=0 / nr=0 / decimate=1 / interlaced=0 / bluray_compat=0 / constrained_intra=0 / bframes=3 / b_pyramid=2 / b_adapt=1 / b_bias=0 / direct=1 / weightb=1 / open_gop=0 / weightp=2 / keyint=250 / keyint_min=25 / scenecut=40 / intra_refresh=0 / rc_lookahead=40 / rc=2pass / mbtree=1 / bitrate=4905 / ratetol=1.0 / qcomp=0.60 / qpmin=0 / qpmax=69 / qpstep=4 / cplxblur=20.0 / qblur=0.5 / ip_ratio=1.40 / aq=1:1.00
Язык : Norwegian
Default : Да
Forced : Нет
Аудио #1
Идентификатор : 2
Формат : MPEG Audio
Версия формата : Version 1
Профиль формата : Layer 3
Идентификатор кодека : A_MPEG/L3
Идентификатор кодека/Подсказка : MP3
Продолжительность : 23 м.
Вид битрейта : Постоянный
Битрейт : 192 Кбит/сек
Каналы : 2 канала
Частота : 44,1 КГц
Метод сжатия : С потерями
Размер потока : 32,1 Мбайт (3%)
Заголовок : VO (datynet)
Язык : Russian
Default : Да
Forced : Нет
Аудио #2
Идентификатор : 3
Формат : AC-3
Формат/Информация : Audio Coding 3
Расширение режима : CM (complete main)
Параметр Endianness формата : Big
Идентификатор кодека : A_AC3
Продолжительность : 23 м.
Вид битрейта : Постоянный
Битрейт : 448 Кбит/сек
Каналы : 2 канала
Расположение каналов : Front: L R
Частота : 48,0 КГц
Метод сжатия : С потерями
Размер потока : 75,0 Мбайт (8%)
Заголовок : Original
Язык : Norwegian
Default : Нет
Forced : Нет
Текст
Идентификатор : 4
Формат : UTF-8
Идентификатор кодека : S_TEXT/UTF8
Идентификатор кодека/Информация : UTF-8 Plain Text
Заголовок : Ольга Тропашко
Язык : Russian
Default : Да
Forced : Нет

Список серий:

01. Over skyene er himmelen alltid gra
02. Alt som stiger opp, kommer en gang ned
03. Selv kynikere har et hjerte
04. Steril naerhet
05. Man reder som man ligger med
06. Boddelen fra Sibir
07. Hevneren fra Holmlia
08. Et stort lite liv

Внимание! Раздача ведётся путём добавления новых серий:

Внимание! Раздача ведётся путём добавления новых серий; при каждом добавлении создаётся новый торрент. Чтобы начать докачку новой серии, пользователям необходимо сделать следующее:
(1) остановить скачивание,
(2) удалить старый торрент у себя из клиента (старые серии удалять не надо),
(3) скачать новый торрент и запустить его у себя в клиенте вместо старого, при этом указать клиенту путь в старую папку куда и должно происходить скачивание новых серий.
Ваш клиент при этом должен произвести хеширование (проверку) старой папки (если не производит сам - помогите ему сделать это), и будет докачивать только те серии которых у вас ещё нет. Старые серии при этом не удаляются, а продолжают раздаваться!
Eсли вы уже удалили старые серии, то предотвратить повторную закачку старых серий можно, отжав галочку в соответствующих местах при запуске нового торрента. По возможности, желательно не удалять старые серии как можно дольше чтобы релизёр не столько продолжал раздавать старые серии, а смог сконцентрироваться на новых.
Скриншоты:
Вне форума [Профиль] [ЛС]
Показать сообщения:    
Ответить на тему

Текущее время: Сегодня 20:47

Часовой пояс: GMT + 3



Вы не можете начинать темы
Вы не можете отвечать на сообщения
Вы не можете редактировать свои сообщения
Вы не можете удалять свои сообщения
Вы не можете голосовать в опросах
Вы не можете прикреплять файлы к сообщениям
Вы не можете скачивать файлы