Сегодня идет свободное скачивание без начисления Download

Подпольная империя / Boardwalk Empire / Сезон: 2 / Серии: 1-12 из 12 (Тимоти Ван Паттен, Аллен Култер) [2011, Драма, криминал, HDTVRip] MVO (Первый канал)

Ответить на тему
 
Автор
Сообщение

Omen ®

Стаж: 6 лет 1 месяц

Сообщений: 184308

Торрент-статистика

Пост 27-Янв-2016 06:00

[Цитировать]

Подпольная империя / Boardwalk Empire- Год выпуска: 2011
Страна: США
Жанр: Драма, криминал
Продолжительность: 00:55:00
Перевод: Профессиональный (многоголосый закадровый) / Первый канал
Сэмпл: http://multi-up.com/999276
Русские субтитры: нет-Режиссёр: Тимоти Ван Паттен, Аллен Култер
В ролях: Стив Бушеми, Майкл Питт, Келли Макдоналд, Майкл Шеннон, Ши Уигхэм, Алекса Палладино, Майкл Стулбарг, Стивен Грэм, Винсент Пьяцца, Джек Хьюстон др.-Описание: 1920 год. Через несколько часов Атлантик-Сити — столица развлечений и порока, как и вся Америка, вступит в эпоху «Сухого закона». Енох «Наки» Томпсон, днем — городской казначей, а ночью — хитроумный гангстер со связями на самом «верху», решает воспользоваться ситуацией и получить баснословные прибыли на подпольной торговле алкоголем. Однако не он один жаждет обогатиться на новом промысле.-Качество: HDTVRip
Формат: AVI
Видео кодек: XviD
Аудио кодек: AC3
Видео: 688x384 (1.79:1), 23.976 fps, XviD build 73 ~1617 kbps avg, 0.255 bit/pixel
Аудио: 48 kHz, AC3 Dolby Digital, 3/2 (L,C,R,l,r) + LFE ch, ~192 kbps
Субтитры: отсутствуют

MediaInfo

General
Complete name : F:\Подпольная империя (Сезон 2) Первый канал\Boardwalk.Empire.S02E01.HDTVRip.1canal.avi
Format : AVI
Format/Info : Audio Video Interleave
File size : 743 MiB
Duration : 57mn 7s
Overall bit rate : 1 818 Kbps
Writing application : VirtualDubMod 1.5.10.3 | www.virtualdub-fr.org || (build 2550/release)
Writing library : VirtualDubMod build 2550/release

Video
ID : 0
Format : MPEG-4 Visual
Format profile : Advanced Simple@L5
Format settings, BVOP : 1
Format settings, QPel : No
Format settings, GMC : No warppoints
Format settings, Matrix : Custom
Codec ID : XVID
Codec ID/Hint : XviD
Duration : 57mn 7s
Bit rate : 1 617 Kbps
Width : 688 pixels
Height : 384 pixels
Display aspect ratio : 16:9
Frame rate : 23.976 fps
Color space : YUV
Chroma subsampling : 4:2:0
Bit depth : 8 bits
Scan type : Progressive
Compression mode : Lossy
Bits/(Pixel*Frame) : 0.255
Stream size : 661 MiB (89%)
Writing library : XviD 73

Audio
ID : 1
Format : AC-3
Format/Info : Audio Coding 3
Mode extension : CM (complete main)
Format settings, Endianness : Big
Codec ID : 2000
Duration : 57mn 7s
Bit rate mode : Constant
Bit rate : 192 Kbps
Channel count : 2 channels
Channel positions : Front: L R
Sampling rate : 48.0 KHz
Bit depth : 16 bits
Compression mode : Lossy
Stream size : 78.4 MiB (11%)
Alignment : Split accross interleaves
Interleave, duration : 42 ms (1.00 video frame)
Interleave, preload duration : 500 ms

Скриншоты

-

Ссылка на предыдущие и альтернативные раздачи

-
Вне форума [Профиль] [ЛС]
Показать сообщения:    
Ответить на тему

Текущее время: Сегодня 17:56

Часовой пояс: GMT + 3



Вы не можете начинать темы
Вы не можете отвечать на сообщения
Вы не можете редактировать свои сообщения
Вы не можете удалять свои сообщения
Вы не можете голосовать в опросах
Вы не можете прикреплять файлы к сообщениям
Вы не можете скачивать файлы