Сегодня идет свободное скачивание без начисления Download

Мистер Робинсон / Mr. Robinson / Сезон: 1 / Серии: 1-5 из 6 (Энди Экерман, Майкл Лембек, Фил Льюис) [2015, Комедия, dvdrip] DVO (Александр Седов, Денис Колесников / Кураж-Бомбей)

Ответить на тему
 
Автор
Сообщение

Omen ®

Стаж: 5 лет 6 месяцев

Сообщений: 186946

Торрент-статистика

Пост 26-Янв-2016 21:00

[Цитировать]

Мистер Робинсон / Mr. Robinson
Год выпуска: 2015
Страна: США
Жанр: Комедия
Продолжительность: 21
Перевод: Профессиональный (двухголосый закадровый) Александр Седов, Денис Колесников / Кураж-Бомбей
Режиссёр: Энди Экерман, Майкл Лембек, Фил Льюис
В ролях: Крэйг Робинсон
Бенжамин Колдык
Брэндон Т. Джексон
Спенсер Грэммер
Амандла Стенберг
Пери Гилпин
Данте Браун
Этан Джош Ли
Франческа Майа
Тим Бэгли
Описание: Молодой музыкант Крейг приспосабливается к своей новой жизни. Он начинает работать учителем музыки в средней школе в большом городе. Там он столкнется с политикой учителей и соблазнами одиноких мам.
Сэмпл: http://sendfile.su/1197534
Качество: dvdrip
Формат: MP4
Видео: 720x404 (16:9), 23.976 fps, XviD ~1100 kbps avg, 0.17 bit/pixel
Аудио: 44.1 kHz, 2 ch, AAC (LC), 128.00 kbps avg
Субтитры: Отсутствуют

Список серий

Эпизод 1 Пилот
Эпизод 2 Flesh for Fantasy
Эпизод 3 Ain't Nothin' But a Hound Dog
Эпизод 4 Love the One You're With
Эпизод 5 Can't Buy Me Love

MediaInfo

Общее
Полное имя : /.../Mr.Robinson.S01/mr.robinson.101.Kuraj-Bambey.Rus.mp4
Формат : MPEG-4
Профиль формата : Base Media
Идентификатор кодека : isom (isom)
Размер файла : 171 Мбайт
Продолжительность : 21 м.
Режим общего битрейта : Переменный
Общий поток : 1124 Кбит/сек
Дата кодирования : UTC 2015-12-22 14:02:26
Дата пометки : UTC 2015-12-22 14:02:26
Программа кодирования : Yamb 2.1.0.0 []http://yamb.unite-video.com]
Видео
Идентификатор : 1
Формат : AVC
Формат/Информация : Advanced Video Codec
Профиль формата : High@L3.1
Параметр CABAC формата : Да
Параметр ReFrames формата : 5 кадров
Идентификатор кодека : avc1
Идентификатор кодека/Информация : Advanced Video Coding
Продолжительность : 21 м.
Битрейт : 993 Кбит/сек
Максимальный битрейт : 4276 Кбит/сек
Ширина : 720 пикселей
Высота : 404 пикселя
Соотношение сторон : 16:9
Режим частоты кадров : Постоянный
Частота кадров : 23,976 (24000/1001) кадра/сек
Цветовое пространство : YUV
Субдискретизация насыщенности : 4:2:0
Битовая глубина : 8 бит
Тип развёртки : Прогрессивная
Бит/(Пиксели*Кадры) : 0.142
Размер потока : 151 Мбайт (88%)
Библиотека кодирования : x264 core 146 r2538 121396c
Настройки программы : cabac=1 / ref=5 / deblock=1:1:1 / analyse=0x3:0x133 / me=umh / subme=9 / psy=1 / psy_rd=1.00:0.00 / mixed_ref=1 / me_range=16 / chroma_me=1 / trellis=2 / 8x8dct=1 / cqm=0 / deadzone=21,11 / fast_pskip=0 / chroma_qp_offset=-2 / threads=16 / lookahead_threads=1 / sliced_threads=0 / nr=0 / decimate=1 / interlaced=0 / bluray_compat=0 / constrained_intra=0 / bframes=3 / b_pyramid=2 / b_adapt=2 / b_bias=0 / direct=3 / weightb=1 / open_gop=0 / weightp=2 / keyint=250 / keyint_min=23 / scenecut=40 / intra_refresh=0 / rc_lookahead=60 / rc=crf / mbtree=1 / crf=19.0 / qcomp=0.60 / qpmin=0 / qpmax=69 / qpstep=4 / ip_ratio=1.40 / aq=1:1.00
Дата кодирования : UTC 2015-08-05 23:41:57
Дата пометки : UTC 2015-12-22 14:02:33
Цветовой диапазон : Limited
Коэффициенты матрицы : BT.709
Аудио
Идентификатор : 2
Формат : AAC
Формат/Информация : Advanced Audio Codec
Профиль формата : LC
Идентификатор кодека : 40
Продолжительность : 21 м.
Вид битрейта : Переменный
Битрейт : 128 Кбит/сек
Максимальный битрейт : 135 Кбит/сек
Каналы : 2 канала
Расположение каналов : Front: L R
Частота : 44,1 КГц
Частота кадров : 43,066 кадра/сек (1024 spf)
Метод сжатия : С потерями
Размер потока : 19,4 Мбайт (11%)
Дата кодирования : UTC 2015-12-22 14:02:33
Дата пометки : UTC 2015-12-22 14:02:33

Скриншоты





Вне форума [Профиль] [ЛС]
Показать сообщения:    
Ответить на тему

Текущее время: Сегодня 18:38

Часовой пояс: GMT + 3



Вы не можете начинать темы
Вы не можете отвечать на сообщения
Вы не можете редактировать свои сообщения
Вы не можете удалять свои сообщения
Вы не можете голосовать в опросах
Вы не можете прикреплять файлы к сообщениям
Вы не можете скачивать файлы