Сегодня идет свободное скачивание без начисления Download

Пространство / Экспансия / The Expanse / Сезон: 1 / Серии: 1-7 из 10 (Роберт Либерман, Терри МакДонаф) [2015, фантастика, детектив, WEB-DLRip-AVC 576p] MVO (LostFilm) + Original + Subs (Rus, Eng)

Ответить на тему
 
Автор
Сообщение

Omen ®

Стаж: 5 лет 10 месяцев

Сообщений: 184329

Торрент-статистика

Пост 26-Янв-2016 05:40

[Цитировать]

-Пространство | Экспансия | The Expanse-- • Год выпуска: 2015
• Страна: США
• Жанр: Фантастика, детектив
• Продолжительность: ~ 00:43:00-• Перевод: Профессиональный (многоголосый закадровый) | LostFilm-• Режиссёр: Роберт Либерман, Терри МакДонаф-• В ролях: Шоре Агдашлу, Кэс Анвар, Уэс Чэтэм, Томас Джейн, Стивен Стрейт, Илайс Туфексис, Джейн Моффат, Сара Митич, Майкл Мюррей, Джо Делфин.-• Описание: Сыщик Миллер трудится над таинственной пропажей молодой женщины. Его детективные дорожки пересекаются с жизненным путём Холдена – плутоватого капитана звездолёта. Напарники поневоле начинают действовать вместе и отправляются в долгое странствие по Космосу. В котором, им предстоит раскрыть заговор, имеющий вселенские масштабы.
Сценарий для проекта писался по роману «Пробуждение Левиафана» Джеймса С.А. Кори
- --• Качество: WEB-DLRip-AVC 576p
• Формат: MKV
• Видео: X264, 1024x576 (16:9), 23,976 fps, ~2002 kbps
• Аудио #1: AC3, 48 kHz, 6 ch, 384 kbps, CBR - Rus
• Аудио #2: AC3, 48 kHz, 6 ch, 384 kbps, CBR - Eng
• Субтитры: два вида - стилизованные, стандартные / Русские (Omskbird), английские
-

✘ Релиз ✘

рип, работа с субтитрами qqss44
звук 5.1 skyns61
Дорожка #1 получена наложением выделенных голосов от «LostFilm» на центр оригинального AC3
перевод и озвучание Lostfilm
чистый рип, без заставки и логотипа

✘ MediaInfo ✘

Код:
Общее
Уникальный идентификатор                 : 242508194655891141697822086269857286228 (0xB671611F5B2CE832A553739B29F5C854)
Формат                                   : Matroska
Версия формата                           : Version 2
Размер файла                             : 853 Мбайт
Продолжительность                        : 43 м.
Общий поток                              : 2771 Кбит/сек
Дата кодирования                         : UTC 2015-12-30 16:15:55
Программа кодирования                    : mkvmerge v7.9.0 ('Birds') 64bit
Библиотека кодирования                   : libebml v1.3.1 + libmatroska v1.4.2
DURATION                                 : 00:42:40.510000000
NUMBER_OF_FRAMES                         : 560
NUMBER_OF_BYTES                          : 17993
_STATISTICS_WRITING_APP                  : mkvmerge v7.9.0 ('Birds') 64bit
_STATISTICS_WRITING_DATE_UTC             : 2015-12-30 16:15:55
_STATISTICS_TAGS                         : BPS DURATION NUMBER_OF_FRAMES NUMBER_OF_BYTES
Видео
Идентификатор                            : 1
Формат                                   : AVC
Формат/Информация                        : Advanced Video Codec
Профиль формата                          : High@L4.1
Параметр CABAC формата                   : Да
Параметр ReFrames формата                : 5 кадров
Идентификатор кодека                     : V_MPEG4/ISO/AVC
Продолжительность                        : 43 м.
Битрейт                                  : 2002 Кбит/сек
Ширина                                   : 1024 пикселя
Высота                                   : 576 пикселей
Соотношение сторон                       : 16:9
Режим частоты кадров                     : Постоянный
Частота кадров                           : 23,976 кадра/сек
Цветовое пространство                    : YUV
Субдискретизация насыщенности            : 4:2:0
Битовая глубина                          : 8 бит
Тип развёртки                            : Прогрессивная
Бит/(Пиксели*Кадры)                      : 0.142
Размер потока                            : 599 Мбайт (70%)
Библиотека кодирования                   : x264 core 130 r2273 b3065e6
Настройки программы                      : cabac=1 / ref=5 / deblock=1:-1:-1 / analyse=0x3:0x133 / me=umh / subme=11 / psy=1 / psy_rd=1.00:0.20 / mixed_ref=1 / me_range=24 / chroma_me=1 / trellis=2 / 8x8dct=1 / cqm=0 / deadzone=21,11 / fast_pskip=0 / chroma_qp_offset=-3 / threads=12 / lookahead_threads=1 / sliced_threads=0 / nr=0 / decimate=0 / interlaced=0 / bluray_compat=0 / constrained_intra=0 / bframes=5 / b_pyramid=2 / b_adapt=2 / b_bias=0 / direct=3 / weightb=1 / open_gop=0 / weightp=2 / keyint=240 / keyint_min=23 / scenecut=40 / intra_refresh=0 / rc=2pass / mbtree=0 / bitrate=2002 / ratetol=1.0 / qcomp=0.60 / qpmin=0 / qpmax=69 / qpstep=4 / cplxblur=20.0 / qblur=0.5 / ip_ratio=1.40 / pb_ratio=1.30 / aq=1:1.00
Язык                                     : English
Default                                  : Да
Forced                                   : Нет
DURATION                                 : 00:43:02.001000000
NUMBER_OF_FRAMES                         : 61906
NUMBER_OF_BYTES                          : 645487387
_STATISTICS_WRITING_APP                  : mkvmerge v7.9.0 ('Birds') 64bit
_STATISTICS_WRITING_DATE_UTC             : 2015-12-30 16:15:55
_STATISTICS_TAGS                         : BPS DURATION NUMBER_OF_FRAMES NUMBER_OF_BYTES
Аудио #1
Идентификатор                            : 2
Формат                                   : AC-3
Формат/Информация                        : Audio Coding 3
Расширение режима                        : CM (complete main)
Параметр Endianness формата              : Big
Идентификатор кодека                     : A_AC3
Продолжительность                        : 43 м.
Вид битрейта                             : Постоянный
Битрейт                                  : 384 Кбит/сек
Каналы                                   : 6 каналов
Расположение каналов                     : Front: L C R, Side: L R, LFE
Частота                                  : 48,0 КГц
Метод сжатия                             : С потерями
Размер потока                            : 118 Мбайт (14%)
Заголовок                                : LostFilm 5.1
Язык                                     : Russian
Default                                  : Да
Forced                                   : Нет
Аудио #2
Идентификатор                            : 3
Формат                                   : AC-3
Формат/Информация                        : Audio Coding 3
Расширение режима                        : CM (complete main)
Параметр Endianness формата              : Big
Идентификатор кодека                     : A_AC3
Продолжительность                        : 43 м.
Вид битрейта                             : Постоянный
Битрейт                                  : 384 Кбит/сек
Каналы                                   : 6 каналов
Расположение каналов                     : Front: L C R, Side: L R, LFE
Частота                                  : 48,0 КГц
Метод сжатия                             : С потерями
Размер потока                            : 118 Мбайт (14%)
Заголовок                                : original 5.1
Язык                                     : English
Default                                  : Нет
Forced                                   : Нет
Текст #1
Идентификатор                            : 4
Формат                                   : ASS
Идентификатор кодека                     : S_TEXT/ASS
Идентификатор кодека/Информация          : Advanced Sub Station Alpha
Метод сжатия                             : Без потерь
Заголовок                                : Stylized Omskbird (.ass)
Язык                                     : Russian
Default                                  : Нет
Forced                                   : Нет
Текст #2
Идентификатор                            : 5
Формат                                   : UTF-8
Идентификатор кодека                     : S_TEXT/UTF8
Идентификатор кодека/Информация          : UTF-8 Plain Text
Заголовок                                : Standart Omskbird (.srt)
Язык                                     : Russian
Default                                  : Нет
Forced                                   : Нет
Текст #3
Идентификатор                            : 6
Формат                                   : ASS
Идентификатор кодека                     : S_TEXT/ASS
Идентификатор кодека/Информация          : Advanced Sub Station Alpha
Метод сжатия                             : Без потерь
Заголовок                                : Stylized Original (.ass)
Язык                                     : English
Default                                  : Нет
Forced                                   : Нет
Текст #4
Идентификатор                            : 7
Формат                                   : UTF-8
Идентификатор кодека                     : S_TEXT/UTF8
Идентификатор кодека/Информация          : UTF-8 Plain Text
Заголовок                                : Standart Original (.srt)
Язык                                     : English
Default                                  : Нет
Forced                                   : Нет
[/spoiler]

✘ Скриншоты ✘

✘ Раздача ведется путем добавления новых серий ✘

Когда раздача ведётся путём добавления новых серий, при каждом добавлении создётся новый торрент. Чтобы начать докачку новой серии, пользователям необходимо сделать следующее:
(1) остановить скачивание,
(2) удалить старый торрент у себя из клиента (старые серии удалять не надо),
(3) скачать новый торрент и запустить его у себя в клиенте вместо старого, при этом указать клиенту путь в старую папку, куда и должно происходить скачивание новых серий.
Ваш клиент при этом должен произвести хеширование (проверку) старой папки (если не производит сам - помогите ему сделать это), и будет докачивать только те серии, которых у вас ещё нет. Старые серии при этом не удаляются, а продолжают раздаваться!
Eсли вы уже удалили старые серии, то предотвратить повторную закачку старых серий можно, отжав галочку в соответсвующих местах при запуске нового торрента. По возможности, желательно не удалять старые серии как можно дольше, чтобы релизёр не столько продолжал раздавать старые серии, а смог сконцентрироваться на новых.
-
Вне форума [Профиль] [ЛС]
Похожие темы
Форум Тема Автор Торрент Отв. Посл. сообщение
./templates/default/images/folder_dl.gif Обучающее видео Павел Гулевич | Уроки Photoshop. От простого к сложному (2013) [ISO] Omen
1 | 0

0 | 2145

54

2014-02-04 18:27
Omen Последнее
./templates/default/images/folder_dl.gif Психология, Тренинг, Саморазвитие Ева Бергер | Как добиваться своего с помощью НЛП. 49 простых правил (2012) [FB2] Omen
1 | 0

0 | 1110

19

2014-08-18 18:58
Omen Последнее
./templates/default/images/folder_dl.gif Обучающее видео Центр «Специалист» | Об IP-адресации по-простому (2014) PCRec Omen
1 | 0

0 | 1429

66

2015-03-03 19:29
Omen Последнее
./templates/default/images/folder_dl.gif Философия, Религия, Эзотерика Дугин А.Г. - Ноомахия: войны ума. Логос Европы: средиземноморская цивилизация во времени и пространстве. [2014, DjVu, RUS] Omen
1 | 0

0 | 877

0

2016-09-19 01:00
Omen Последнее
./templates/default/images/folder_dl.gif Разное Элизаде Рэйк | Wish Book. 500 Заданий, которые просто необходимо выполнить (2017) [PDF] }{@R0N
1 | 0

0 | 6204

7

2017-03-26 22:13
}{@R0N Последнее
./templates/default/images/folder_dl.gif Кулинария Е.Я. Богуславская (сост.) | Вино, самогон, пиво, настойки, наливки. Варим, гоним, настаиваем. Просто в домашних условиях! (2016) [PDF, EPUB] moralis
1 | 0

0 | 1324

3

2017-09-29 15:24
moralis Последнее
./templates/default/images/folder_dl.gif Фантастика, фэнтези, ужасы, мистика Владимир Стрельников | Простые Оружные Парни (2017) [MP3] }{@R0N
1 | 0

0 | 669

6

2018-01-14 16:43
}{@R0N Последнее
./templates/default/images/folder_dl.gif Психология, Тренинг, Саморазвитие Уильям Макрейвен | Заправляй кровать. 10 простых правил, которые могут изменить твою жизнь и, возможно, весь мир (2018) [FB2] }{@R0N
1 | 0

0 | 2078

6

2018-02-11 21:32
}{@R0N Последнее
./templates/default/images/folder_dl.gif Техническая и научно-популярная литература Паоло Аливерти | Электроника для начинающих. Самый простой пошаговый самоучитель (2018) [PDF] }{@R0N
1 | 0

0 | 121587

21

2018-06-09 22:47
}{@R0N Последнее
Показать сообщения:    
Ответить на тему

Текущее время: Сегодня 14:44

Часовой пояс: GMT + 3



Вы не можете начинать темы
Вы не можете отвечать на сообщения
Вы не можете редактировать свои сообщения
Вы не можете удалять свои сообщения
Вы не можете голосовать в опросах
Вы не можете прикреплять файлы к сообщениям
Вы не можете скачивать файлы