Сегодня идет свободное скачивание без начисления Download

Герои: Возрождение / Heroes Reborn / Сезон: 1 / Серии: 1-13 из 13 (Лариса Кондрацки, Грег Биман / Larysa Kondracki, Greg Beeman) [2015, триллер, драма, фантастика, фэнтези, WEB-DL 1080p] MVO (LostFilm) + Original

Ответить на тему
 
Автор
Сообщение

Omen ®

Стаж: 5 лет 9 месяцев

Сообщений: 184433

Торрент-статистика

Пост 26-Янв-2016 05:40

[Цитировать]

--Герои: Возрождение | Heroes Reborn-- Год выпуска: 2015
Страна: США
Жанр: триллер, драма, фантастика, фэнтези
Продолжительность: ~ 00:43:00-Перевод: Профессиональный (многоголосый закадровый) LostFilm-Режиссёр: Лариса Кондрацки, Грег Биман / Larysa Kondracki, Greg Beeman-В ролях: Джек Коулман, Франческа Фишер-Иствуд, Ной Грэй-Кэби, Гэтлин Грин, Грег Гранберг, Райан Гузман, Ив Харлоу, Джимми Жан-Луи, Робби Кей, Риа Килстедт и др.-Описание: Год назад ужасный теракт в Одессе, штат Техас, практически уничтожил весь город. Виновниками произошедшей трагедии были признаны люди с экстраординарными способностями. Теперь они вынуждены скрываться и убегать от тех, кто мечтает воспользоваться их необычайными возможностями в собственных целях. Но каждый день в мире появляются новые герои, которые не знают, что им делать со своими удивительными талантами и пытаются жить, как раньше. Так, Люк и Джоанна одержимы личной вендеттой. Томми, как и любой подросток, мечтает завоевать сердце девушки своей мечты. Малина растет в любящей семье, где все ее холят и лелеют, веруя, что она рождена для свершения великих дел. Между тем в Токио Мико разыскивает пропавшего отца. Но наступает момент, когда новым героям приходится объединиться, чтобы противостоять вселенскому злу и спасти человечество. Неоценимую помощь в этом трудном деле им окажут уже знакомые зрителям Ной Беннет, Хиро Накамура, Мэтт Паркман и Мохиндер Суреш, готовые поделиться богатым опытом с молодым поколением.- --Качество: WEB-DL 1080p
Контейнер: MKV
Видео: H.264, 1920x1080 (16:9), 23.976 fps, ~5013 kbps, 0.101 bit/pixel
Аудио # 1: AC3, 48 kHz, 6 ch, 384 kbps, CBR - LostFilm
Аудио # 2: AC3, 48 kHz, 6 ch, 384 kbps, CBR - оригинал
Субтитры: английский

Релиз

Релиз: Skyns61
Работа со звуком: Skyns61
Дорожка #1 получена наложением выделенных голосов от «LostFilm» на центр оригинального AC3.

Список серий

01. О дивный новый мир (Brave New World)
02. Одесса (Odessa)
03. Под маской (Under the Mask)
04. Ради общего блага (The Needs of the Many)
05. Логово льва (The Lion's Den)
06. Игра окончена (Game Over)
07. 13 июня. Часть первая (June 13th Part One)
08. 13 июня. Часть вторая (June 13th Part Two)
09. Воскресенье, кровавое воскресенье (Sundae, Bloody Sundae )
10. 11:53 по Одессе (11:53 to Odessa)
11. Отправьте туда клонов (Send in the Clones)
12. Преданная сотрудница (Company Woman)
13. Проект Возрождение (Project Reborn)

MediaInfo

Общее
Уникальный идентификатор : 245362074153972430683047641834302996579 (0xB897043EC8BC5097AF580C7AEEA00063)
Полное имя : G:\Films\Heroes.Reborn.S01.WEB-DL.1080p.LostFilm\Heroes.Reborn.S01E01.1080p.WEB-DL.LostFilm.mkv
Формат : Matroska
Версия формата : Version 4 / Version 2
Размер файла : 1,77 Гбайт
Продолжительность : 43 м.
Общий поток : 5898 Кбит/сек
Дата кодирования : UTC 2015-09-27 06:53:49
Программа кодирования : mkvmerge v8.3.0 ('Over the Horizon') 64bit
Библиотека кодирования : libebml v1.3.1 + libmatroska v1.4.2
DURATION : 00:43:01.216000000
NUMBER_OF_FRAMES : 80663
NUMBER_OF_BYTES : 123898368
_STATISTICS_WRITING_APP : mkvmerge v8.3.0 ('Over the Horizon') 64bit
_STATISTICS_WRITING_DATE_UTC : 2015-09-27 06:53:49
_STATISTICS_TAGS : BPS DURATION NUMBER_OF_FRAMES NUMBER_OF_BYTES
Видео
Идентификатор : 1
Формат : AVC
Формат/Информация : Advanced Video Codec
Профиль формата : High@L4
Параметр CABAC формата : Да
Параметр ReFrames формата : 4 кадра
Идентификатор кодека : V_MPEG4/ISO/AVC
Продолжительность : 43 м.
Битрейт : 5013 Кбит/сек
Ширина : 1920 пикселей
Высота : 1080 пикселей
Соотношение сторон : 16:9
Режим частоты кадров : Постоянный
Частота кадров : 23,976 кадра/сек
Цветовое пространство : YUV
Субдискретизация насыщенности : 4:2:0
Битовая глубина : 8 бит
Тип развёртки : Прогрессивная
Бит/(Пиксели*Кадры) : 0.101
Размер потока : 1,51 Гбайт (85%)
Язык : English
Default : Да
Forced : Нет
colour_range : Limited
Основные цвета : BT.709
Характеристики трансфера : BT.709
Коэффициенты матрицы : BT.709
Аудио #1
Идентификатор : 2
Формат : AC-3
Формат/Информация : Audio Coding 3
Расширение режима : CM (complete main)
Параметр Endianness формата : Big
Идентификатор кодека : A_AC3
Продолжительность : 43 м.
Вид битрейта : Постоянный
Битрейт : 384 Кбит/сек
Каналы : 6 каналов
Расположение каналов : Front: L C R, Side: L R, LFE
Частота : 48,0 КГц
Метод сжатия : С потерями
Размер потока : 118 Мбайт (7%)
Заголовок : LostFilm 5.1
Язык : Russian
Default : Да
Forced : Нет
Аудио #2
Идентификатор : 3
Формат : AC-3
Формат/Информация : Audio Coding 3
Расширение режима : CM (complete main)
Параметр Endianness формата : Big
Идентификатор кодека : A_AC3
Продолжительность : 43 м.
Вид битрейта : Постоянный
Битрейт : 384 Кбит/сек
Каналы : 6 каналов
Расположение каналов : Front: L C R, Side: L R, LFE
Частота : 48,0 КГц
Метод сжатия : С потерями
Размер потока : 118 Мбайт (7%)
Заголовок : original 5.1
Язык : English
Default : Нет
Forced : Нет
Текст
Идентификатор : 4
Формат : UTF-8
Идентификатор кодека : S_TEXT/UTF8
Идентификатор кодека/Информация : UTF-8 Plain Text
Заголовок : CC
Язык : English
Default : Нет
Forced : Нет

Скриншоты

Внимание! Раздача ведётся путём добавления новых серий.


Внимание! Раздача ведётся путём добавления новых серий; при каждом добавлении создётся новый торрент. Чтобы начать докачку новой серии, пользователям необходимо сделать следующее:
Остановить скачивание.
Удалить старый торрент у себя из клиента (старые серии удалять не надо).
Скачать новый торрент и запустить его у себя в клиенте вместо старого, при этом указать клиенту путь в старую папку куда и должно происходить скачивание новых серий.
Ваш клиент при этом должен произвести хеширование (проверку) старой папки (если не производит сам - помогите ему сделать это), и будет докачивать только те серии которых у вас ещё нет. Старые серии при этом не удаляются, а продолжают раздаваться!
Eсли вы уже удалили старые серии, то предотвратить повторную закачку старых серий можно, отжав галочку в соответсвующих местах при запуске нового торрента. По возможности, желательно не удалять старые серии как можно дольше чтобы релизёр не столько продолжал раздавать старые серии, а смог сконцентрироваться на новых.
Раздача обновлена. Добавлена 13-я серия. Приятного просмотра!
Вне форума [Профиль] [ЛС]
Показать сообщения:    
Ответить на тему

Текущее время: Сегодня 17:29

Часовой пояс: GMT + 3



Вы не можете начинать темы
Вы не можете отвечать на сообщения
Вы не можете редактировать свои сообщения
Вы не можете удалять свои сообщения
Вы не можете голосовать в опросах
Вы не можете прикреплять файлы к сообщениям
Вы не можете скачивать файлы