Сегодня идет свободное скачивание без начисления Download

Герои: Возрождение / Heroes: Reborn / Сезон: 1 / Серии: 1-13 (13) (Лариса Кондрацки, Грег Биман, Мэтт Шекман) [2015, фантастика, драма, боевик, фэнтези, криминал, триллер, WEB-DL 720p] MVO (NewStudio)

Ответить на тему
 
Автор
Сообщение

Omen ®

Стаж: 5 лет 10 месяцев

Сообщений: 184329

Торрент-статистика

Пост 26-Янв-2016 05:40

[Цитировать]

Герои: Возрождение / Heroes: Reborn--- Год выпуска: 2015
Страна: США | NBC
Жанр: фантастика, драма, боевик, фэнтези, криминал, триллер
Продолжительность: ~00:45:00-Перевод: Профессиональный (многоголосый закадровый) | NewStudio-Режиссёры: Лариса Кондрацки, Грег Биман, Мэтт Шекман и др.
В ролях: Джек Коулмэн, Франческа Фишер-Иствуд, Ноа Грэй-Кэби, Гэтлин Грин, Грег Гранберг, Райан Гузман, Ив Харлоу, Джимми Жан-Луи, Робби Кей, Риа Килстедт и др.
Описание: Сверхъестественный феномен проявится заново, когда новое поколение обладателей экстраординарных сил будет вынуждено вступить в противостояние с теми, кто объявит на них охоту ради получения их суперспособностей. В своем эпическом путешествии героям «Возрождения» предстоит встретить персонажей оригинального сериала Тима Кринга, которые помогут им открыть судьбу вселенной и найти в ней свое место..-Качество: WEB-DL 720p
Контейнер: MKV
Видео: H.264, 1280x720 (16:9), 23.976 fps, 3950 kbps, 0.174 kbit/pixel
Аудио 1: AC3, 48 kHz, 6 ch, 384 kbps | Russian
Аудио 2: AC3, 48 kHz, 6 ch, 384 kbps | English
Субтитры: отсутствуют-Релиз:

Перевод: Александра Цернант.
Озвучание: NewStudioGroup.--

Скриншоты

MI

Общее:Формат : MatroskaВерсия формата : Version 4 / Version 2Размер файла : 2,93 ГбайтПродолжительность : 1 ч. 29 м.Общий поток : 4700 Кбит/секДата кодирования : UTC 2015-09-24 07:49:11Программа кодирования : mkvmerge v8.2.0 ('World of Adventure') 32bitБиблиотека кодирования : libebml v1.3.1 + libmatroska v1.4.2DURATION : 01:29:12.832000000NUMBER_OF_FRAMES : 167276NUMBER_OF_BYTES : 256935936_STATISTICS_WRITING_APP : mkvmerge v8.2.0 ('World of Adventure') 32bit_STATISTICS_WRITING_DATE_UTC : 2015-09-24 07:49:11_STATISTICS_TAGS : BPS DURATION NUMBER_OF_FRAMES NUMBER_OF_BYTES
Видео:Формат : AVCФормат/Информация : Advanced Video CodecПрофиль формата : High@L3.1Параметр CABAC формата : НетПараметр ReFrames формата : 2 кадраИдентификатор кодека : V_MPEG4/ISO/AVCПродолжительность : 1 ч. 29 м.Битрейт : 3839 Кбит/секШирина : 1280 пикселейВысота : 718 пикселейСоотношение сторон : 16:9Режим частоты кадров : ПостоянныйЧастота кадров : 23,976 кадра/секЦветовое пространство : YUVСубдискретизация насыщенности : 4:2:0Битовая глубина : 8 битТип развёртки : ПрогрессивнаяБит/(Пиксели*Кадры) : 0.174Размер потока : 2,39 Гбайт (82%)Язык : EnglishDefault : ДаForced : НетЦветовой диапазон : LimitedОсновные цвета : BT.709Характеристики трансфера : BT.709Коэффициенты матрицы : BT.709
Аудио #1:Формат : AC-3Формат/Информация : Audio Coding 3Расширение режима : CM (complete main)Параметр Endianness формата : BigИдентификатор кодека : A_AC3Продолжительность : 1 ч. 29 м.Вид битрейта : ПостоянныйБитрейт : 384 Кбит/секКаналы : 6 каналовРасположение каналов : Front: L C R, Side: L R, LFEЧастота : 48,0 КГцМетод сжатия : С потерямиЗадержка видео : 15 мс.Размер потока : 245 Мбайт (8%)Заголовок : NewStudio.TVЯзык : RussianDefault : ДаForced : Нет
Аудио #2:Формат : AC-3Формат/Информация : Audio Coding 3Расширение режима : CM (complete main)Параметр Endianness формата : BigИдентификатор кодека : A_AC3Продолжительность : 1 ч. 29 м.Вид битрейта : ПостоянныйБитрейт : 384 Кбит/секКаналы : 6 каналовРасположение каналов : Front: L C R, Side: L R, LFEЧастота : 48,0 КГцМетод сжатия : С потерямиЗадержка видео : 15 мс.Размер потока : 245 Мбайт (8%)Язык : EnglishDefault : НетForced : Нет

Внимание! Раздача ведётся путём добавления новых серий

Внимание! Раздача ведётся путём добавления новых серий; при каждом добавлении создаётся новый торрент. Чтобы начать докачку новой серии, пользователям необходимо сделать следующее:
(1) остановить скачивание,
(2) удалить старый торрент у себя из клиента (старые серии удалять не надо),
(3) скачать новый торрент и запустить его у себя в клиенте вместо старого, при этом указать клиенту путь в старую папку куда и должно происходить скачивание новых серий.
Ваш клиент при этом должен произвести хеширование (проверку) старой папки (если не производит сам - помогите ему сделать это), и будет докачивать только те серии которых у вас ещё нет. Старые серии при этом не удаляются, а продолжают раздаваться!
Eсли вы уже удалили старые серии, то предотвратить повторную закачку старых серий можно, отжав галочку в соответствующих местах при запуске нового торрента. По возможности, желательно не удалять старые серии как можно дольше чтобы релизёр не столько продолжал раздавать старые серии, а смог сконцентрироваться на новых.
Вне форума [Профиль] [ЛС]
Похожие темы
Форум Тема Автор Торрент Отв. Посл. сообщение
./templates/default/images/folder_dl.gif TBS (пошаговые стратегии) Heroes of Might and Magic V (Gold edition) / Герои Меча и Магии 5 (Золотое издание) [RePack] [RUS / RUS] (2007) (3.1) Omen
0 | 1

0 | 1714

24

2015-03-28 15:01
Omen Последнее
Показать сообщения:    
Ответить на тему

Текущее время: Сегодня 14:45

Часовой пояс: GMT + 3



Вы не можете начинать темы
Вы не можете отвечать на сообщения
Вы не можете редактировать свои сообщения
Вы не можете удалять свои сообщения
Вы не можете голосовать в опросах
Вы не можете прикреплять файлы к сообщениям
Вы не можете скачивать файлы