Сегодня идет свободное скачивание без начисления Download

Закон и порядок. Специальный корпус / Law & Order: Special Victims Unit / Сезон: 17 / Серии: 1-12 из ? (Дик Вульф) [2015, драма, полицейский процедурал, HDTVRip] Original + Rus Subs (incogniata, aliasbs) + Original

Ответить на тему
 
Автор
Сообщение

Omen ®

Стаж: 5 лет 6 месяцев

Сообщений: 186946

Торрент-статистика

Пост 21-Янв-2016 20:12

[Цитировать]

Закон и порядок. Специальный корпус / Law & Order: Special Victims Unit
Год выпуска: 2015
Страна: США
Жанр: драма, полицейский процедурал
Продолжительность: 00:45:00
Перевод: Субтитры incogniata, aliasbs
Режиссёр: Дик Вульф
В ролях: Маришка Харгитей, Айс-Ти, Тамара Тюни, Келли Гиддиш, Питер Сканавино, Рауль Эспарза и другие.
Описание: В системе судопроизводства преступления на сексуальной почве считаются особенно тяжкими. В Нью-Йорке подобные преступления расследуют детективы элитного подразделения, известного как Специальный корпус. Это рассказ о них.
Сэмпл: http://sendfile.su
Качество: HDTVRip
Формат: AVI
Видео: 624:352
Аудио: MPEG Layer
Субтитры: Русские

Список серий

1. Препарирование Дьявола.
2. Преступная патология.
3. Мост трансгендеров.
4. Институционная ошибка.
5. Охрана общественного порядка.
6. Материнский инстинкт.
7. Родовое бремя.
8. Погоня за меланхолией.
9. Извращенный стандарт.
10. Учитель на охоте.
11. Случай в особняке.
12. Недопонимание.

MediaInfo

Format : MPEG-4
Format profile : Base Media
Codec ID : isom
File size : 303 MiB
Duration : 42mn 44s
Overall bit rate mode : Variable
Overall bit rate : 991 Kbps
Encoded date : UTC 2014-10-16 00:51:28
Tagged date : UTC 2014-10-16 00:51:28
Video #1
ID : 1
Format : AVC
Format/Info : Advanced Video Codec
Format profile : High@L3.1
Format settings, CABAC : Yes
Format settings, ReFrames : 5 frames
Codec ID : avc1
Codec ID/Info : Advanced Video Coding
Duration : 42mn 44s
Bit rate : 873 Kbps
Maximum bit rate : 3 155 Kbps
Width : 720 pixels
Height : 404 pixels
Display aspect ratio : 16:9
Frame rate mode : Constant
Frame rate : 23.976 fps
Color space : YUV
Chroma subsampling : 4:2:0
Bit depth : 8 bits
Scan type : Progressive
Bits/(Pixel*Frame) : 0.125
Stream size : 267 MiB (88%)
Writing library : x264 core 142 r2479 dd79a61
Encoding settings : cabac=1 / ref=5 / deblock=1:0:0 / analyse=0x3:0x113 / me=umh / subme=8 / psy=1 / psy_rd=1.00:0.00 / mixed_ref=1 / me_range=16 / chroma_me=1 / trellis=1 / 8x8dct=1 / cqm=0 / deadzone=21,11 / fast_pskip=0 / chroma_qp_offset=-2 / threads=16 / lookahead_threads=2 / sliced_threads=0 / nr=0 / decimate=1 / interlaced=0 / bluray_compat=0 / constrained_intra=0 / bframes=3 / b_pyramid=2 / b_adapt=2 / b_bias=0 / direct=3 / weightb=1 / open_gop=0 / weightp=2 / keyint=250 / keyint_min=23 / scenecut=40 / intra_refresh=0 / rc_lookahead=50 / rc=crf / mbtree=1 / crf=19.0 / qcomp=0.60 / qpmin=0 / qpmax=69 / qpstep=4 / ip_ratio=1.40 / aq=1:1.00
Encoded date : UTC 2014-10-16 00:20:35
Tagged date : UTC 2014-10-16 00:51:30
Matrix coefficients : BT.709
Audio #2
ID : 2
Format : AAC
Format/Info : Advanced Audio Codec
Format profile : LC
Codec ID : 40
Duration : 42mn 44s
Bit rate mode : Variable
Bit rate : 114 Kbps
Maximum bit rate : 147 Kbps
Channel(s) : 2 channels
Channel positions : Front: L R
Sampling rate : 48.0 KHz
Compression mode : Lossy
Stream size : 34.9 MiB (12%)
Encoded date : UTC 2014-10-16 00:51:29
Tagged date : UTC 2014-10-16 00:51:30
S16E05.mkv
General
Unique ID : 183221636351540897328310810820732689020 (0x89D7341E889BAEA03F75A815ACDE9A7C)
Complete name : D:\ВИДЕО ФАЙЛЫ\ФИЛЬМЫ\Сериалы\L&O SVU\Law&Order SVU season 16 [rus sub]\S16E05.mkv
Format : Matroska
Format version : Version 4 / Version 2
File size : 770 MiB
Duration : 42mn 19s
Overall bit rate : 2 543 Kbps
Encoded date : UTC 2014-10-23 01:11:53
Writing application : mkvmerge v6.7.0 ('Back to the Ground') 64bit built on Jan 8 2014 14:31:51
Writing library : libebml v1.3.0 + libmatroska v1.4.1
Video #1
ID : 1
Format : AVC
Format/Info : Advanced Video Codec
Format profile : High@L4.1
Format settings, CABAC : Yes
Format settings, ReFrames : 5 frames
Codec ID : V_MPEG4/ISO/AVC
Duration : 42mn 19s
Bit rate : 2 108 Kbps
Width : 1 280 pixels
Height : 720 pixels
Display aspect ratio : 16:9
Frame rate mode : Constant
Frame rate : 23.976 fps
Color space : YUV
Chroma subsampling : 4:2:0
Bit depth : 8 bits
Scan type : Progressive
Bits/(Pixel*Frame) : 0.095
Stream size : 638 MiB (83%)
Writing library : x264 core 142 r2479 dd79a61
Encoding settings : cabac=1 / ref=5 / deblock=1:1:1 / analyse=0x3:0x113 / me=umh / subme=8 / psy=1 / psy_rd=1.00:0.00 / mixed_ref=1 / me_range=16 / chroma_me=1 / trellis=1 / 8x8dct=1 / cqm=0 / deadzone=21,11 / fast_pskip=0 / chroma_qp_offset=-2 / threads=16 / lookahead_threads=4 / sliced_threads=0 / nr=0 / decimate=1 / interlaced=0 / bluray_compat=0 / constrained_intra=0 / bframes=5 / b_pyramid=2 / b_adapt=2 / b_bias=0 / direct=3 / weightb=1 / open_gop=0 / weightp=2 / keyint=250 / keyint_min=23 / scenecut=40 / intra_refresh=0 / rc_lookahead=50 / rc=crf / mbtree=1 / crf=18.0 / qcomp=0.60 / qpmin=0 / qpmax=69 / qpstep=4 / ip_ratio=1.40 / aq=1:1.00
Language : English
Default : No
Forced : No
Matrix coefficients : BT.709
Audio #2
ID : 2
Format : AC-3
Format/Info : Audio Coding 3
Mode extension : CM (complete main)
Format settings, Endianness : Big
Codec ID : A_AC3
Duration : 42mn 19s
Bit rate mode : Constant
Bit rate : 384 Kbps
Channel(s) : 6 channels
Channel positions : Front: L C R, Side: L R, LFE
Sampling rate : 48.0 KHz
Bit depth : 16 bits
Compression mode : Lossy
Stream size : 116 MiB (15%)
Default : Yes
Forced : No

Скриншоты

ДОБАВЛЕНА 12 СЕРИЯ. ПРОСЬБА ПЕРЕКАЧАТЬ ТОРРЕНТ-ФАЙЛ.
Вне форума [Профиль] [ЛС]
Похожие темы
Форум Тема Автор Торрент Отв. Посл. сообщение
./templates/default/images/folder_dl.gif Фантастика, фэнтези, ужасы, мистика Дмитрий Силлов | Закон торговца (2018) [FB2] }{@R0N
1 | 0

0 | 52

6

2018-05-14 22:16
}{@R0N Последнее
Показать сообщения:    
Ответить на тему

Текущее время: Сегодня 22:33

Часовой пояс: GMT + 3



Вы не можете начинать темы
Вы не можете отвечать на сообщения
Вы не можете редактировать свои сообщения
Вы не можете удалять свои сообщения
Вы не можете голосовать в опросах
Вы не можете прикреплять файлы к сообщениям
Вы не можете скачивать файлы