Сегодня идет свободное скачивание без начисления Download

Мыслить как преступник / Criminal minds / Сезон: 11 / Серии: 1-11 из (?) (Джефф Дэвис / Jeff Davis) [2015, Криминал, детектив, драма, HDTVRip-AVC] Original + Rus Subs (Команда Even)

Ответить на тему
 
Автор
Сообщение

Omen ®

Стаж: 5 лет 11 месяцев

Сообщений: 184329

Торрент-статистика

Пост 21-Янв-2016 06:52

[Цитировать]

Мыслить как преступник / Criminal Minds
Год выпуска: 2015
Страна: США
Жанр: Криминал, детектив, драма
Продолжительность: 00:42:00
Перевод: Субтитры Notabenoid
Автор перевода: команда Even
Создатель: Джефф Дэвис / Jeff Davis
В ролях: Томас Гибсон, Шемар Мур, Метью Грей Габлер, Кирстен Вангснесс, Эй Джей Кук, Джо Мантенья
Описание: Главные герои сериала - команда лучших следователей ФБР, способных понять и проанализировать ход мыслей самых изощрённых преступников, предугадать их дальнейшие поступки и тем самым предотвратить ужасные преступления. Когда обычные криминалисты заходят в тупик, на помощь им приходят специалисты по поведенческому анализу. Вместо тщательного изучения улик они пытаются найти и понять мотивы преступления, досконально вникая в каждый шаг преступника и пытаясь мыслить, как он. Работая на месте преступления, эти профессионалы словно расследуют его изнутри, стараясь понять мысли преступника, какими бы тёмными они ни были.
Доп. информация: Пятый год переводят любимый сериал на нотабеноиде энтузиасты в команде Even. Огромная благодарность за 11 сезон! Приятного просмотра!
Сэмпл: http://multi-up.com/1069901
Качество: HDTVRip-AVC
Формат: MP4
Видео: 720x404 (16:9), 23.976 fps, ~729 kbps, 0.105 bit/pixel
Аудио: AAC, 48 kHz, 2 ch, ~136.00 kbps avg
Субтитры: русские, SRT

MediaInfo

Общее
Полное имя : D:\Films\Criminal minds 11season SUB\Criminal.Minds.S11E01.mp4
Формат : MPEG-4
Профиль формата : Base Media
Идентификатор кодека : isom
Размер файла : 263 Мбайт
Продолжительность : 42 м.
Режим общего битрейта : Переменный
Общий поток : 870 Кбит/сек
Дата кодирования : UTC 2015-10-01 02:04:52
Дата пометки : UTC 2015-10-01 02:04:52
Видео
Идентификатор : 2
Формат : AVC
Формат/Информация : Advanced Video Codec
Профиль формата : High@L3.1
Параметр CABAC формата : Да
Параметр ReFrames формата : 5 кадров
Идентификатор кодека : avc1
Идентификатор кодека/Информация : Advanced Video Coding
Продолжительность : 42 м.
Продолжительность оригинала : 42 м.
Битрейт : 729 Кбит/сек
Максимальный битрейт : 4568 Кбит/сек
Ширина : 720 пикселей
Высота : 404 пикселя
Соотношение сторон : 16:9
Режим частоты кадров : Постоянный
Частота кадров : 23,976 кадра/сек
Цветовое пространство : YUV
Субдискретизация насыщенности : 4:2:0
Битовая глубина : 8 бит
Тип развёртки : Прогрессивная
Бит/(Пиксели*Кадры) : 0.105
Размер потока : 220 Мбайт (84%)
Размер потока оригинала : 220 Мбайт (84%)
Библиотека кодирования : x264 core 148 r2597 e86f3a1
Настройки программы : cabac=1 / ref=5 / deblock=1:0:0 / analyse=0x3:0x113 / me=umh / subme=8 / psy=1 / psy_rd=1.00:0.00 / mixed_ref=1 / me_range=16 / chroma_me=1 / trellis=1 / 8x8dct=1 / cqm=0 / deadzone=21,11 / fast_pskip=1 / chroma_qp_offset=-2 / threads=13 / lookahead_threads=2 / sliced_threads=0 / nr=0 / decimate=1 / interlaced=0 / bluray_compat=0 / constrained_intra=0 / bframes=3 / b_pyramid=2 / b_adapt=2 / b_bias=0 / direct=3 / weightb=1 / open_gop=0 / weightp=2 / keyint=250 / keyint_min=23 / scenecut=40 / intra_refresh=0 / rc_lookahead=50 / rc=crf / mbtree=1 / crf=19.0 / qcomp=0.60 / qpmin=0 / qpmax=69 / qpstep=4 / ip_ratio=1.40 / aq=1:1.00
Дата кодирования : UTC 2015-10-01 01:16:38
Дата пометки : UTC 2015-10-01 02:04:52
Коэффициенты матрицы : BT.709
Аудио
Идентификатор : 1
Формат : AAC
Формат/Информация : Advanced Audio Codec
Профиль формата : LC
Идентификатор кодека : 40
Продолжительность : 42 м.
Вид битрейта : Переменный
Битрейт : 136 Кбит/сек
Максимальный битрейт : 176 Кбит/сек
Каналы : 2 канала
Расположение каналов : Front: L R
Частота : 48,0 КГц
Метод сжатия : С потерями
Задержка видео : 83 мс.
Размер потока : 41,1 Мбайт (16%)
Дата кодирования : UTC 2015-10-01 02:04:52
Дата пометки : UTC 2015-10-01 02:04:52
Общее
Полное имя : D:\Films\Criminal minds 11season SUB\Criminal.Minds.S11E01.srt
Формат : SubRip
Размер файла : 72,2 Кбайт
Текст
Формат : SubRip
Метод сжатия : Без потерь

Скриншоты

Внимание! Раздача ведётся путём добавления новых серий!

Внимание! Раздача ведётся путём добавления новых серий; при каждом добавлении создётся новый торрент. Чтобы начать докачку новой серии, пользователям необходимо сделать следующее:
(1) остановить скачивание,
(2) удалить старый торрент у себя из клиента (старые серии удалять не надо),
(3) скачать новый торрент и запустить его у себя в клиенте вместо старого, при этом указать клиенту путь в старую папку куда и должно происходить скачивание новых серий.
Ваш клиент при этом должен произвести хеширование (проверку) старой папки (если не производит сам - помогите ему сделать это), и будет докачивать только те серии которых у вас ещё нет. Старые серии при этом не удаляются, а продолжают раздаваться!
Eсли вы уже удалили старые серии, то предотвратить повторную закачку старых серий можно, отжав галочку в соответсвующих местах при запуске нового торрента.
Вне форума [Профиль] [ЛС]
Показать сообщения:    
Ответить на тему

Текущее время: Сегодня 11:11

Часовой пояс: GMT + 3



Вы не можете начинать темы
Вы не можете отвечать на сообщения
Вы не можете редактировать свои сообщения
Вы не можете удалять свои сообщения
Вы не можете голосовать в опросах
Вы не можете прикреплять файлы к сообщениям
Вы не можете скачивать файлы