Today is a free download without charge Download

(Symphonic Power Metal) [CD] Rhapsody Of Fire - Into The Legend (Limited Edition) - 2016, FLAC (image+.cue), lossless

Reply to topic
 
Author
Message

Omen ®

Longevity: 8 years 5 months

Posts: 181087

Торрент-статистика

Post 16-Jan-2016 12:33

[Quote]

-Rhapsody Of Fire - Into The Legend (Limited Edition)- Жанр: Symphonic Power Metal
Носитель: CD
Год издания: 2016
Страна исполнителя: Italy
Страна-производитель диска: Germany
Издатель: AFM Records
Номер по каталогу: AFM 532-9
Аудиокодек: FLAC (*.flac)
Тип рипа: image+.cue
Битрейт аудио: lossless
Продолжительность: 01:11:21
Источник (релизер): Собственный CD
Наличие сканов: Да (Complete 600 DPI)
Доп. информация: Encyclopaedia Metallum-

Треклист

01. In Principio
02. Distant Sky
03. Into the Legend
04. Winter's Rain
05. A Voice in the Cold Wind
06. Valley of Shadows
07. Shining Star
08. Realms of Light
09. Rage of Darkness
10. The Kiss of Life
11. Volar Sin Dolor (Bonus Track)
-

Лог создания рипа

Exact Audio Copy V1.1 from 23. June 2015
EAC extraction logfile from 16. January 2016, 1:28
Rhapsody of Fire / Into the Legend
Used drive : ATAPI iHAS122 W Adapter: 2 ID: 0
Read mode : SecureUtilize accurate stream : YesDefeat audio cache : YesMake use of C2 pointers : No
Read offset correction : 48Overread into Lead-In and Lead-Out : NoFill up missing offset samples with silence : YesDelete leading and trailing silent blocks : NoNull samples used in CRC calculations : YesUsed interface : Installed external ASPI interface
Used output format : User Defined EncoderSelected bitrate : 1024 kBit/sQuality : HighAdd ID3 tag : NoCommand line compressor : C:\Program Files\FLAC\flac.exeAdditional command line options : -V -8 -T "Date=%year%" -T "Genre=%genre%" -T"COMMENT=Ripped by Ilijan" -8 -V %source%
TOC of the extracted CD
Track | Start | Length | Start sector | End sector --------------------------------------------------------- 1 | 0:00.00 | 2:45.00 | 0 | 12374 2 | 2:45.00 | 4:32.41 | 12375 | 32815 3 | 7:17.41 | 5:01.07 | 32816 | 55397 4 | 12:18.48 | 7:44.18 | 55398 | 90215 5 | 20:02.66 | 6:18.03 | 90216 | 118568 6 | 26:20.69 | 6:54.71 | 118569 | 149689 7 | 33:15.65 | 4:39.01 | 149690 | 170615 8 | 37:54.66 | 6:00.72 | 170616 | 197687 9 | 43:55.63 | 6:02.66 | 197688 | 224903 10 | 49:58.54 | 16:45.05 | 224904 | 300283 11 | 66:43.59 | 4:37.48 | 300284 | 321106 12 | 73:53.32 | 5:30.02 | 332507 | 357258
Range status and errors
Selected range
Filename D:\ilко\Rhapsody of Fire - Into the Legend.wav
Peak level 98.8 % Extraction speed 4.5 X Range quality 100.0 % Test CRC E800B34B Copy CRC E800B34B Copy OK
No errors occurred
AccurateRip summary
Track 1 not present in databaseTrack 2 not present in databaseTrack 3 not present in databaseTrack 4 not present in databaseTrack 5 not present in databaseTrack 6 not present in databaseTrack 7 not present in databaseTrack 8 not present in databaseTrack 9 not present in databaseTrack 10 not present in databaseTrack 11 not present in database
None of the tracks are present in the AccurateRip database
End of status report
---- CUETools DB Plugin V2.1.6
[CTDB TOCID: Wsga_1ikAzO0PQQVuHeiaiwSVn0-] foundSubmit result: Wsga_1ikAzO0PQQVuHeiaiwSVn0- has been confirmedTrack | CTDB Status 1 | (1/1) Accurately ripped 2 | (1/1) Accurately ripped 3 | (1/1) Accurately ripped 4 | (1/1) Accurately ripped 5 | (1/1) Accurately ripped 6 | (1/1) Accurately ripped 7 | (1/1) Accurately ripped 8 | (1/1) Accurately ripped 9 | (1/1) Accurately ripped 10 | (1/1) Accurately ripped 11 | (1/1) Accurately ripped
==== Log checksum 06CDEC618A9E276D18690410FC0811523A4B606C16C35F5551D05567A85BEA9E ====
-

Состав


Fabio Lione - Vocals: Alex Holzwarth - Drums:
Roberto De Micheli - Guitars: Alex Staropoli - Keyboards:
Alessandro Sala - Bass:
-

Bonus Video - "Into the Legend"

Размер: 47,7 МБ
Тип: MPEG-4
Продолжительность: 00:05:07
----- Видео -----
Ширина кадра: 640
Высота кадра: 480
Скорость потока: 2980 кбит в секунду
Частoта кадров: 25 кадров в секунду
----- Аудио -----
Битрейт: 322 кбит в сек.
Каналы: 2 (стерео)
Частота дискретизации: 44.1 кГц

Скриншоты

Other forum [Profile] [PM]
Similar theme
Forum Topic Author Torrent Replies Last Post
./templates/default/images/folder_dl.gif Metal (Symphonic/Technical Death Metal) [CD] Whorion - The Reign Of The 7th Sector - 2015, FLAC (image+.cue), lossless Omen
0 | 2

0 | 978

0

2016-03-15 00:00
Omen Latest
./templates/default/images/folder_dl.gif Metal (Symphonic Power Metal) [CD] Twilight Force - Heroes Of Mighty Magic (Limited Edition 2CD) - 2016, FLAC (image+.cue), lossless Omen
1 | 0

0 | 1464

1

2016-09-11 01:00
Omen Latest
./templates/default/images/folder_dl.gif Metal (Symphonic, Progressive Power Metal) Serenity - Lionheart (Digipack, 2CD) - 2017 [FLAC, image +.cue, lossless] sergej644
1 | 0

0 | 2815

9

2018-01-27 18:45
sergej644 Latest
Display posts from previous:    
Reply to topic

The time now is: Today 08:03

All times are GMT + 3 Hours



You cannot post new topics in this forum
You cannot reply to topics in this forum
You cannot edit your posts in this forum
You cannot delete your posts in this forum
You cannot vote in polls in this forum
You cannot attach files in this forum
You cannot download files in this forum