Сегодня идет свободное скачивание без начисления Download

Новые приключения кота Леопольда / Серии: 13 из 13 (Анатолий Резников, ...) [2015 г., приключения мультфильм, детский, SATRip]

Ответить на тему
 
Автор
Сообщение

Clavik ®

Пол:

Стаж: 4 года 1 месяц

Сообщений: 2445

Откуда: Украина

Торрент-статистика

Пост 04-Янв-2016 22:25

[Цитировать]

-Новые приключения кота Леопольда«Ребята, давайте жить дружно»-- Производство: Россия, Теремок ТВ, Русское мобильное телевидение
Жанр: приключения, мультфильм, детский
Год выпуска: 2015 г.
Перевод: Не требуется-Релиз на DVD: 10 декабря 2008, «Азимут», ...
Релиз на Blu-Ray: 24 мая 2011, «Lizard Cinema Trade», ...-Режиссер: Анатолий Резников
Персонажи: Кот Леопольд, Мыши... Хвост за Хвост, Глаз за Глаз (Шутка такой)-Роли озвучивали:
Александр Калягин, Диомид Виноградов, Андрей Бархударов-Описание:
Встречайте старого знакомого - самого доброго кота в мире - Леопольда в новых сериях! Как и все, Леопольд собирается встретить Новый год, но маленькие мышата хотят все испортить, потому что считают, что кот слишком счастливый...-Серии: 13 из 13 серий
Продолжительность: ~ 00:12:00 мин серия-
Качество видео: SATRip
Контейнер: AVI
Видео кодек: XviD
Аудио кодек: AC-3
Видео: MPEG-4 Visual at 1450 Кбит/сек: 720 x 400 (1.800) at 25.000 fps, 0.28 Бит/Пиксели
Аудио: AC-3 at 192 Кбит/сек: 2 канала, 48,0 КГц
Cубтитры: отсутствуют
-

Список серий:

01. Лавина с гор
02. Сплошные неприятности
03. Всё кувырком
04. Кулинарный рецепт
05. Птицы
06. Ремонт в тылу врага
07. Такси вызывали?
08. Новогодняя ёлка
09. Бурный поток
10. На рыбалке у реки
11. Под жарким солнцем
12. Вперёд за колбасой и сыром
13. Парк развлечений
-

Media Info

Общее
Полное имя : E:\_Сериалы\МультСериалы\Novye.Prikljuchenija.Leopolda.2015.XviD.SATRip.by.GeneralFilm\01 серия.avi
Формат : AVI
Формат/Информация : Audio Video Interleave
Размер файла : 148 Мбайт
Продолжительность : 12 м.
Общий поток : 1652 Кбит/сек
Программа кодирования : VirtualDubMod 1.5.10.3 | www.virtualdub-fr.org || (build 2550/release)
Библиотека кодирования : VirtualDubMod build 2550/release
Видео
Идентификатор : 0
Формат : MPEG-4 Visual
Профиль формата : Advanced Simple@L5
Параметр BVOP формата : 1
Параметр QPel формата : Нет
Параметр GMC формата : Без точки перехода
Параметр матрицы формата : Выборочная
Идентификатор кодека : XVID
Идентификатор кодека/Подсказка : XviD
Продолжительность : 12 м.
Битрейт : 1450 Кбит/сек
Ширина : 720 пикселей
Высота : 400 пикселей
Соотношение сторон : 16:9
Частота кадров : 25,000 кадров/сек
Цветовое пространство : YUV
Субдискретизация насыщенности : 4:2:0
Битовая глубина : 8 бит
Тип развёртки : Прогрессивная
Метод сжатия : С потерями
Бит/(Пиксели*Кадры) : 0.201
Размер потока : 130 Мбайт (88%)
Библиотека кодирования : XviD 73
Аудио
Идентификатор : 1
Формат : AC-3
Формат/Информация : Audio Coding 3
Расширение режима : CM (complete main)
Параметр Endianness формата : Big
Идентификатор кодека : 2000
Продолжительность : 12 м.
Вид битрейта : Постоянный
Битрейт : 192 Кбит/сек
Каналы : 2 канала
Расположение каналов : Front: L R
Частота : 48,0 КГц
Частота кадров : 31,250 кадров/сек (1536 spf)
Метод сжатия : С потерями
Размер потока : 17,2 Мбайт (12%)
Выравнивание : Разделение по промежуткам
Продолжительность промежутка : 40 мс. (1,00 видеокадр)
Время предзагрузки промежутка : 500 мс.
-

Скриншот c названием мультфильма

 
-

Скриншоты

       -        
-

Как закачать отдельный файл

1. Открыть торрент
2. Снять галки с тех файлов торрента, которые мы не хотим закачивать. Оставляем только на нужных нам файлах (файле).
3. Нажать О.К.
В клиенте utorrent
Инструкция
1) Открыть торрент
 
2) Снять галки с тех файлов торрента, которые мы не хотим закачивать:
* либо вручную, снимая с каждого файла галку( скрин №1)
* либо, нажав кнопку "Снять метки (Select None)", сняв сразу со всех файлов(скрин №2)
№1
 
№2
 
Оставляем только на нужных нам файлах (файле).
 
3)Нажать О.К
 
-Добавлена тринадцатая, заключительная, серияРаботаю за

_________________


Вне форума [Профиль] [ЛС]

XP1971

Пол:

Стаж: 4 года 11 месяцев

Сообщений: 5756

Торрент-статистика

Пост 04-Янв-2016 23:26 (спустя 1 час 1 минута)

[Цитировать]

Clavik писал(а):
Год выпуска: 2015 г.
и
Clavik писал(а):
Релиз на DVD: 10 декабря 2008, «Азимут», ...
Релиз на Blu-Ray: 24 мая 2011, «Lizard Cinema Trade», ...
Вы как всегда, на своей волне, ну и как понять, это все серии старые или есть что то новое от 2015 года?

_________________
Вне форума [Профиль] [ЛС]

}{@R0N

Стаж: 2 года

Сообщений: 5046

Торрент-статистика

Пост 05-Янв-2016 11:12 (спустя 11 часов)

[Цитировать]

XP1971, дружище, вы, я тоже смотрю, остаетесь на своей волне... К чему такая принципиальность?
Сериал новый, год выпуска 2015... а в следствии отсутствия информации на кинопоиске о новом серале были взяты данные от старого, советских времен, сериала, дабы подчеркнуть что этот сериал является продолжением всеми любимой истории о приключениях Кота Леопольда.
Вне форума [Профиль] [ЛС]

XP1971

Пол:

Стаж: 4 года 11 месяцев

Сообщений: 5756

Торрент-статистика

Пост 05-Янв-2016 13:32 (спустя 2 часа 20 минут)

[Цитировать]

Уважаемый }{@R0N, причем тут принципиальность? Оформление на трекерах придумали для выдачи точной информации в компактном виде о релизе, а так как оформил автор, невозможно понять, что в релизе, новые серии или перепаковка старых... Да и смотрю со временем, понятие о модератостве скатилось к банальному нажатию кнопки проверено, а жаль (
Но спасибо за информацию, которую далжен был написать автор релиза в оформлении.

_________________
Вне форума [Профиль] [ЛС]
Похожие темы
Форум Тема Автор Торрент Отв. Посл. сообщение
./templates/default/images/folder_dl.gif Психология, Тренинг, Саморазвитие Алексей Тулин | Трансперсональная психология. Новые подходы (2015) [FB2] Omen
1 | 0

0 | 486

4

2015-06-08 19:12
Omen Последнее
./templates/default/images/folder_dl.gif Изменение интерфейса Новые темы для оформления Windows 10 by Leha342 v.08.09.2015 [2015, Ru] (32bit/64bit) O.S.A.
1 | 0

0 | 2634

63

2015-09-08 14:22
O.S.A. Последнее
Показать сообщения:    
Ответить на тему

Текущее время: Сегодня 23:12

Часовой пояс: GMT + 3



Вы не можете начинать темы
Вы не можете отвечать на сообщения
Вы не можете редактировать свои сообщения
Вы не можете удалять свои сообщения
Вы не можете голосовать в опросах
Вы не можете прикреплять файлы к сообщениям
Вы не можете скачивать файлы