Сегодня идет свободное скачивание без начисления Download

Симпсоны / The Simpsons / Сезон: 23 / Серии: 1-22 из 22 [2011-2012, мультсериал, комедия, WEB-DL 1080p] 3xMVO (2x2, VO-production, NemFilm) + Original + Rus Sub (Notabenoid) + Eng Sub

Ответить на тему
 
Автор
Сообщение

Omen ®

Стаж: 5 лет

Сообщений: 190529

Торрент-статистика

Пост 03-Янв-2016 00:00

[Цитировать]

Симпсоны / The Simpsons-
  • Страна: США
  • Жанр: мультсериал, комедия
  • Продолжительность серии: ~00:22:00
  • Год выпуска: 2011-2012
  • Перевод: профессиональный (многоголосый закадровый)
  • Русские субтитры: есть
    -
  • Режиссёр: Мэтт Гроунинг
  • Роли озвучивали: Дэн Кастелланета, Хэнк Азариа, Джулия Кавнер, Нэнси Картрайт, Ярдли Смит, Гарри Ширер
    -
  • Описание: Симпсоны живут в вымышленном городе Спрингфилд, со своим обществом и историей. Гомер - отец семейства, который дает плохие советы и работает инспектором безопасности на атомной электростанции; Мардж - любящая мать и жена, старается сохранить спокойствие в семье; Барт - 10 летний хулиган; Лиза - философский 8-летний ребенок; и Мэгги - младенец, который общается посредством соски.
    -
  • Предыдущие и альтернативные раздачи
  • Семпл
    -
  • Качество: WEB-DL 1080p
  • Формат: MKV
  • Видео: H.264, 1920x1080, 23.976 fps, ~5000 kbps
  • Аудио:
  • AC3, 48.0 KHz, 2.0 ch, 192 kbps [Russian: 2x2]
  • AC3, 48.0 KHz, 2.0 ch, 192 kbps [Russian: VO-production]
  • AC3, 48.0 KHz, 5.1 ch, 384 kbps [Russian: NemFilm]
  • AC3, 48.0 KHz, 5.1 ch, 384 kbps [English]
  • Субтитры: Russian (Notabenoid), English-

Релиз

  • Запись с ТВ: ALEKS KV, Den.S-92, 4erkov, Xottabi4, #Antisnl#
  • Работа со звуком: SerGoLeOne, Gater, shaimovserzh

Список серий

  • 01. Сокол и чёртов человек / The Falcon and the D'Ohman
  • 02. Дух Рузвельтов унимает Барта / Bart Stops to Smell the Roosevelts
  • 03. Дом ужасов 22 / Treehouse of Horror XXII
  • 04. Вы заменимы / Replaceable You
  • 05. Жена-гурман / The Food Wife
  • 06. Работа над книгой / The Book Job
  • 07. Человек в синих фланелевых брюках / The Man in the Blue Flannel Pants
  • 08. Де-ся-ти-про-цент-ное-е решение / The Ten-Per-Cent Solution
  • 09. Пройденные праздники будущего / Holidays of Future Passed
  • 10. Политические неумехи с Гомером Симпсоном / Politically Inept, with Homer Simpson
  • 11. Чёртова сеть / The D'oh-cial Network
  • 12. Мо идёт из грязи в князи / Moe Goes from Rags to Riches
  • 13. И восходит дочь / The Daughter Also Rises
  • 14. Наконец ушедшие / At Long Last Leave
  • 15. Выход через «На скорую руку» / Exit Through the Kwik-E-Mart
  • 16. Как я обмочил вашу маму / How I Wet Your Mother
  • 17. Они, робот / Them, Robot
  • 18. Не обманывай меня, Барт / Beware My Cheating Bart
  • 19. Абсолютно весёлая вещь, которую Барт больше никогда не сделает / A Totally Fun Thing Bart Will Never Do Again
  • 20. Шпион, который меня обучил / The Spy Who Learned Me
  • 21. Нед и Эдна вместе / Ned 'N' Edna's Blend
  • 22. Лиза и Гага / Lisa Goes Gaga

MediaInfo

GeneralUnique ID : 223082201581995366541134705487218262371 (0xA7D411B7A8A0ED3DB3AE2B5DDD04C163)Complete name : C:\The.Simpsons.S23.1080p.WEB-DL.DD5.1.H.264-CtrlHD\The.Simpsons.S23E01.The.Falcon.and.the.DOhman.1080p.WEB-DL.DD5.1.H.264-CtrlHD.mkvFormat : MatroskaFormat version : Version 4 / Version 2File size : 970 MiBDuration : 21mn 51sOverall bit rate : 6 204 KbpsEncoded date : UTC 2015-12-29 11:49:09Writing application : mkvmerge v8.0.0 ('Til The Day That I Die') 64bitWriting library : libebml v1.3.1 + libmatroska v1.4.2DURATION : 00:21:05.810000000NUMBER_OF_FRAMES : 341NUMBER_OF_BYTES : 19074_STATISTICS_WRITING_APP : mkvmerge v8.0.0 ('Til The Day That I Die') 64bit_STATISTICS_WRITING_DATE_UT : 2015-12-29 11:49:09_STATISTICS_TAGS : BPS DURATION NUMBER_OF_FRAMES NUMBER_OF_BYTES
VideoID : 1Format : AVCFormat/Info : Advanced Video CodecFormat profile : High@L4Format settings, CABAC : YesFormat settings, ReFrames : 4 framesCodec ID : V_MPEG4/ISO/AVCDuration : 21mn 51sBit rate : 4 929 KbpsWidth : 1 920 pixelsHeight : 1 080 pixelsDisplay aspect ratio : 16:9Frame rate mode : ConstantFrame rate : 23.976 fpsColor space : YUVChroma subsampling : 4:2:0Bit depth : 8 bitsScan type : ProgressiveBits/(Pixel*Frame) : 0.099Stream size : 771 MiB (79%)Language : EnglishDefault : YesForced : NoColor range : LimitedColor primaries : BT.709Transfer characteristics : BT.709Matrix coefficients : BT.709
Audio #1ID : 2Format : AC-3Format/Info : Audio Coding 3Mode extension : CM (complete main)Format settings, Endianness : BigCodec ID : A_AC3Duration : 21mn 51sBit rate mode : ConstantBit rate : 192 KbpsChannel(s) : 2 channelsChannel positions : Front: L RSampling rate : 48.0 KHzCompression mode : LossyStream size : 30.0 MiB (3%)Title : 2x2Language : RussianDefault : YesForced : No
Audio #2ID : 3Format : AC-3Format/Info : Audio Coding 3Mode extension : CM (complete main)Format settings, Endianness : BigCodec ID : A_AC3Duration : 21mn 51sBit rate mode : ConstantBit rate : 192 KbpsChannel(s) : 2 channelsChannel positions : Front: L RSampling rate : 48.0 KHzCompression mode : LossyStream size : 30.0 MiB (3%)Title : VO-productionLanguage : RussianDefault : NoForced : No
Audio #3ID : 4Format : AC-3Format/Info : Audio Coding 3Mode extension : CM (complete main)Format settings, Endianness : BigCodec ID : A_AC3Duration : 21mn 51sBit rate mode : ConstantBit rate : 384 KbpsChannel(s) : 6 channelsChannel positions : Front: L C R, Side: L R, LFESampling rate : 48.0 KHzCompression mode : LossyStream size : 60.0 MiB (6%)Title : NemFilmLanguage : RussianDefault : NoForced : No
Audio #4ID : 5Format : AC-3Format/Info : Audio Coding 3Mode extension : CM (complete main)Format settings, Endianness : BigCodec ID : A_AC3Duration : 21mn 51sBit rate mode : ConstantBit rate : 384 KbpsChannel(s) : 6 channelsChannel positions : Front: L C R, Side: L R, LFESampling rate : 48.0 KHzCompression mode : LossyStream size : 60.0 MiB (6%)Language : EnglishDefault : NoForced : No
Text #1ID : 6Format : UTF-8Codec ID : S_TEXT/UTF8Codec ID/Info : UTF-8 Plain TextTitle : NotabenoidLanguage : RussianDefault : NoForced : No
Text #2ID : 7Format : UTF-8Codec ID : S_TEXT/UTF8Codec ID/Info : UTF-8 Plain TextLanguage : EnglishDefault : NoForced : No

Скриншоты


Вне форума [Профиль] [ЛС]
Показать сообщения:    
Ответить на тему

Текущее время: Сегодня 01:46

Часовой пояс: GMT + 3



Вы не можете начинать темы
Вы не можете отвечать на сообщения
Вы не можете редактировать свои сообщения
Вы не можете удалять свои сообщения
Вы не можете голосовать в опросах
Вы не можете прикреплять файлы к сообщениям
Вы не можете скачивать файлы