Today is a free download without charge Download

Киборг убийца Трейлер в 3Д / 3D [2016, боевик, триллер, анимация, HDTVrip] Half SideBySide / Горизонтальная анаморфная стереопара

Reply to topic
 
Author
Message

Omen ®

Longevity: 7 years 8 months

Posts: 181087

Торрент-статистика

Post 20-Dec-2015 12:32

[Quote]

Киборг убийца 3D Трейлер
Год выпуска: 2016
Страна: Россия
Студия: Инейджел Юнайтед
Жанр: боевик, триллер, анимация
Продолжительность: 00:02:46
Перевод: Не требуется
Описание: Действие происходит в наши дни. Одна корпорация начала создавать военных киборгов, а вскоре решено было добавить в них искусственный интеллект, но один из создателей этих машин явно против этого, он всех пытается убедить, что это опасно и машины могут выйти из под контроля, но его не слушают и увольняют.
Позже он решает создать своего собственно киборга, который уничтожил бы всю корпорацию, включая все наработки, и при этом жертв быть не должно. "Пусть уж лучше вообще не будет роботов, чем роботы с искусственным интеллектом", - решает он, но про его планы узнают в самой корпорации и решают его задержать, но при задержании инженера случайно убивают и ещё и попадают в компьютер, из-за этого происходит сбой, т.к. учёный не успел ввести директивы,что нельзя убивать людей, у робота всего одна команда - "уничтожить корпорацию" и он начинает уничтожать всё и всех на своём пути, включая и людей. Теперь это уже неконтролируемый киборг-убийца...
Дополнительная информация по релизу: Если вы смотрите в анаглифе и в stereoscopic player, то выбирайте в настройках OPTIMIZED Anaglyph. Так 3D будет более объёмным, хотя и цветокоррекция будет незначительно изменена.
Это ПРОСТО нарезка различных фрагментов из анимационного сериала, который выйдет в январе 2016 года.
Буду выкладывать серии по 15-20 минут, хотя в 3D формате серии будут раза в 2 короче. Потом объединю их в полнометражный фильм.
Ролик создан с помощью The Movies и Sony Vegas, а для создания сериала так же задействованы графические редакторы и другие программы.
В этом трейлере - САМОДЕЛЬНАЯ музыка, но на youtube и vk есть этот 3D ролик с музыкой из оригинального Терминатора.
Качество: HDTVrip
Контейнер: MPEG Video
Формат 3D: Half SideBySide / Горизонтальная анаморфная стереопара
Порядок ракурсов: левый ракурс первый
Видео кодек: Mpeg
Аудио кодек: MPEG Audio
Видео: MPEG Video, 1280x720, 9800 Kbps, 25fps
Аудио: MPEG Audio, 48.0 KHz stereo, 384 Kbps

MediaInfo

General
Format : MPEG-PS
File size : 221 MiB
Duration : 2mn 46s
Overall bit rate : 11.1 Mbps
Video
ID : 224 (0xE0)
Format : MPEG Video
Commercial name : HDV 720p
Format version : Version 2
Format profile : Main@High 1440
Format settings, BVOP : Yes
Format settings, Matrix : Default
Format settings, GOP : M=3, N=6
Duration : 2mn 46s
Bit rate : 10.5 Mbps
Maximum bit rate : 9 800 Kbps
Width : 1 280 pixels
Height : 720 pixels
Display aspect ratio : 16:9
Frame rate : 25.000 fps
Color space : YUV
Chroma subsampling : 4:2:0
Bit depth : 8 bits
Scan type : Progressive
Compression mode : Lossy
Bits/(Pixel*Frame) : 0.457
Time code of first frame : 00:00:00:00
Time code source : Group of pictures header
GOP, Open/Closed : Closed
Stream size : 209 MiB (95%)
Audio
ID : 192 (0xC0)
Format : MPEG Audio
Format version : Version 1
Format profile : Layer 2
Duration : 2mn 46s
Bit rate mode : Constant
Bit rate : 384 Kbps
Channel(s) : 2 channels
Sampling rate : 48.0 KHz
Compression mode : Lossy
Stream size : 7.63 MiB (3%)

Скриншоты




Other forum [Profile] [PM]
Display posts from previous:    
Reply to topic

The time now is: Today 16:05

All times are GMT + 3 Hours



You cannot post new topics in this forum
You cannot reply to topics in this forum
You cannot edit your posts in this forum
You cannot delete your posts in this forum
You cannot vote in polls in this forum
You cannot attach files in this forum
You cannot download files in this forum