Today is a free download without charge Download

(Melodic Hard Rock) [CD] Treat - Dreamhunter - 1987, FLAC (image+.cue), lossless

Reply to topic
 
Author
Message

Omen ®

Longevity: 7 years 10 months

Posts: 181087

Торрент-статистика

Post 17-Dec-2015 00:32

[Quote]

Treat / Dreamhunter Жанр: Melodic Hard Rock
Носитель: CD
Страна-производитель диска (релиза): W.Germany
Год издания: 1987
Издатель (лейбл): Mercury
Номер по каталогу: 832 960-2
Матрица диска: 832 960-2 01 # MADE IN W.GERMANY BY PDO
Страна исполнителя (группы): Sweden
Аудиокодек: FLAC (*.flac)
Тип рипа: image+.cue
Режим рипа: test & copy
Битрейт аудио: lossless
Продолжительность: 00:45:01
Источник (релизер): sewerok
Наличие сканов в содержимом раздачи: нет
Треклист:
01. Sole Survivor [0:05:05.10]
02. You're The One I Want [0:04:07.22]
03. Take Me On Your Wings [0:04:06.20]
04. Best Of Me [0:05:25.13]
05. Dancing On The Edge [0:04:33.02]
06. Outlaw [0:04:52.43]
07. World Of Promises [0:03:58.72]
08. One Way To Glory [0:04:36.08]
09. Save Yourself [0:04:36.35]
10. The Winner [0:03:39.62]

Лог создания рипа

Exact Audio Copy V1.0 beta 4 from 7. December 2014
EAC extraction logfile from 16. December 2015, 22:10
Treat / Dreamhunter
Used drive : MATSHITABD-CMB UJ172 S Adapter: 1 ID: 0
Read mode : SecureUtilize accurate stream : YesDefeat audio cache : YesMake use of C2 pointers : No
Read offset correction : 103Overread into Lead-In and Lead-Out : NoFill up missing offset samples with silence : YesDelete leading and trailing silent blocks : NoNull samples used in CRC calculations : YesUsed interface : Native Win32 interface for Win NT & 2000
Used output format : User Defined EncoderSelected bitrate : 896 kBit/sQuality : HighAdd ID3 tag : NoCommand line compressor : C:\Program Files (x86)\Exact Audio Copy\Flac\flac.exeAdditional command line options : -7 -V -T "Date=%year%" -T "Genre=%genre%" -T "COMMENT=ripped by sewerok®" %source%
TOC of the extracted CD
Track | Start | Length | Start sector | End sector --------------------------------------------------------- 1 | 0:00.33 | 5:05.10 | 33 | 22917 2 | 5:05.43 | 4:07.22 | 22918 | 41464 3 | 9:12.65 | 4:06.20 | 41465 | 59934 4 | 13:19.10 | 5:25.13 | 59935 | 84322 5 | 18:44.23 | 4:33.02 | 84323 | 104799 6 | 23:17.25 | 4:52.43 | 104800 | 126742 7 | 28:09.68 | 3:58.72 | 126743 | 144664 8 | 32:08.65 | 4:36.08 | 144665 | 165372 9 | 36:44.73 | 4:36.35 | 165373 | 186107 10 | 41:21.33 | 3:39.62 | 186108 | 202594
Range status and errors
Selected range
Filename E:\Treat - Dreamhunter [1987](Mercury 832 960-2 W.Germany)\Treat - Dreamhunter.wav
Peak level 100.0 % Extraction speed 3.9 X Range quality 100.0 % Test CRC C87887AA Copy CRC C87887AA Copy OK
No errors occurred
AccurateRip summary
Track 1 accurately ripped (confidence 8) [6EE36117] (AR v2)Track 2 accurately ripped (confidence 8) [02F7CF3E] (AR v2)Track 3 accurately ripped (confidence 8) [80D7A83E] (AR v2)Track 4 accurately ripped (confidence 8) [13A8D2C8] (AR v2)Track 5 accurately ripped (confidence 8) [23F72D5B] (AR v2)Track 6 accurately ripped (confidence 8) [699346DC] (AR v2)Track 7 accurately ripped (confidence 7) [A2C8A83D] (AR v2)Track 8 accurately ripped (confidence 9) [0076C56C] (AR v2)Track 9 accurately ripped (confidence 9) [1F57BF4F] (AR v2)Track 10 accurately ripped (confidence 9) [5246C88A] (AR v2)
All tracks accurately ripped
End of status report
---- CUETools DB Plugin V2.1.5
[CTDB TOCID: NI0sL5eVwGe1os54jbz1O5JZAdk-] foundSubmit result: NI0sL5eVwGe1os54jbz1O5JZAdk- has been confirmedTrack | CTDB Status 1 | (4/6) Accurately ripped 2 | (4/6) Accurately ripped 3 | (4/6) Accurately ripped 4 | (4/6) Accurately ripped 5 | (4/6) Accurately ripped 6 | (4/6) Accurately ripped 7 | (4/6) Accurately ripped 8 | (4/6) Accurately ripped 9 | (4/6) Accurately ripped 10 | (4/6) Accurately ripped
==== Log checksum D75BCF26DF80DBC84297AFD564F2A12E4533EFDE1BA1EF588E8E7A9440B39CCA ====

CUETools log

[CUETools log; Date: 16.12.2015 22:11:50; Version: 2.1.5]Pregap length 00:00:33.[CTDB TOCID: NI0sL5eVwGe1os54jbz1O5JZAdk-] found.Track | CTDB Status 1 | (5/7) Accurately ripped 2 | (5/7) Accurately ripped 3 | (5/7) Accurately ripped 4 | (5/7) Accurately ripped 5 | (5/7) Accurately ripped 6 | (5/7) Accurately ripped 7 | (5/7) Accurately ripped 8 | (5/7) Accurately ripped 9 | (5/7) Accurately ripped 10 | (5/7) Accurately ripped[AccurateRip ID: 0011610e-008a982a-7c0a8d0a] found.Track [ CRC | V2 ] Status 01 [5e69037a|6ee36117] (13+08/21) Accurately ripped 02 [ad7c112a|02f7cf3e] (13+08/21) Accurately ripped 03 [4e262032|80d7a83e] (13+08/21) Accurately ripped 04 [94c3ea43|13a8d2c8] (13+08/21) Accurately ripped 05 [0ba545ac|23f72d5b] (13+08/21) Accurately ripped 06 [a10b7e1b|699346dc] (13+08/21) Accurately ripped 07 [124365d1|a2c8a83d] (13+07/20) Accurately ripped 08 [01ac4c3c|0076c56c] (13+09/22) Accurately ripped 09 [b31dce66|1f57bf4f] (13+09/22) Accurately ripped 10 [7ed6a734|5246c88a] (12+09/21) Accurately ripped
Track Peak [ CRC32 ] [W/O NULL] [ LOG ] -- 100,0 [C87887AA] [7AA67C14] CRC32 01 100,0 [43527A6C] [3E8F754B] 02 87,1 [62BFAF1B] [87A5BFA0] 03 100,0 [9D96CDF8] [00DFE94C] 04 82,9 [A8981268] [A3DAAB78] 05 85,8 [AA1D1F9C] [C889407A] 06 86,6 [BABB2C4D] [10FE1DB7] 07 95,5 [D0FCBF47] [DFB92D26] 08 89,3 [AC26F4BF] [391B0701] 09 91,8 [23991A83] [7A398237] 10 100,0 [2157D3FF] [268ACBF3]

Front, Back, CD

Other forum [Profile] [PM]
Similar theme
Forum Topic Author Torrent Replies Last Post
./templates/default/images/folder_dl.gif Rock (Melodic Hard Rock/AOR) Room Experience - Room Experience - 2015, FLAC (image+.cue), lossless Omen
1 | 0

0 | 1023

11

2015-05-30 15:05
Omen Latest
./templates/default/images/folder_dl.gif Rock (Melodic Hard Rock / AOR) Room Experience - Room Experience [Limited Edition] - 2015, MP3, 320 kbps Omen
1 | 1

0 | 2511

24

2015-05-30 15:34
Omen Latest
./templates/default/images/folder_dl.gif Rock (Melodic Hard Rock) Ozone - Self Defence (Japanese Edition) - 2015, MP3, 320 kbps Omen
1 | 0

0 | 1760

10

2015-10-01 00:00
Omen Latest
./templates/default/images/folder_dl.gif Rock (Melodic Hard Rock) Nordic Union - Nordic Union - 2016, MP3, 256 kbps Omen
1 | 0

0 | 2197

14

2016-01-08 09:00
Omen Latest
./templates/default/images/folder_dl.gif Rock (Melodic Hard Rock) Magnum - Lost On The Road To Eternity (2CD) - 2018 [FLAC, image +.cue, lossless] sergej644
1 | 0

0 | 2709

16

2018-01-27 13:58
sergej644 Latest
./templates/default/images/folder_dl.gif Rock (Melodic Hard Rock) Wildness - Wildness - 2017 [FLAC, image +.cue, lossless] sergej644
1 | 0

0 | 2543

7

2018-01-30 18:49
sergej644 Latest
Display posts from previous:    
Reply to topic

The time now is: Today 18:55

All times are GMT + 3 Hours



You cannot post new topics in this forum
You cannot reply to topics in this forum
You cannot edit your posts in this forum
You cannot delete your posts in this forum
You cannot vote in polls in this forum
You cannot attach files in this forum
You cannot download files in this forum