Сегодня идет свободное скачивание без начисления Download

Губка Боб Квадратные Штаны / SpongeBob SquarePants / Сезон: 6,7,8 / (Стивен Хилленбург / Stephen Hillenburg) [2008-2012, США, Мультипликация, HDTV 1080i] Dub

Ответить на тему
 
Автор
Сообщение

Omen ®

Стаж: 5 лет

Сообщений: 190529

Торрент-статистика

Пост 08-Дек-2015 03:01

[Цитировать]

Губка Боб Квадратные Штаны / SpongeBob SquarePants
Страна: США
Жанр: Мультипликация
Продолжительность: 11:00 серия
Год выпуска: 2008-2012
Перевод: Профессиональный (дублированный)
Русские субтитры: нет
Режиссёр: Стивен Хилленбург / Stephen Hillenburg
Описание: Кто проживает на дне океана? Спанч Боб Сквэр Пэнтс! Или просто Губка Боб квадратные штаны. Этот мультсериал был снят в студии Никелодеон и появился на экранах в 1999 году и сразу завоевал свое место под солнцем. На данный момент я думаю нет такого человека который бы не знал кто такой Губка Боб. Но если все-таки такие есть тогда рассказываю. На глубине океана существует город под названием Бикини Боттом там и происходит все действие. Главного героя зовут Спанч Боб или просто Губка Боб он работает в ресторане мистера Крабса. И уже давно мечтает о повышении. Умом губку само собой аниматоры и сценаристы наделять и не думали, живет себе так и живет.
Релиз от: _Gazer_

Список серий

6 сезон

118-Б. Перезагрузка компьютера
119-А. Наивные штаны
120-А. Бесшапочный Патрик
120-Б. Магазин игрушечных ужасов
121-А. Песчаные замки на пляже
121-Б. Ракушечная катастрофа

7 сезон

146-Б. Навязчивая мелодия
148-Б. Атака улиток
149-А. Ты не знаешь губку
149-Б. Тоннель Перчатка
152-А. Большая сестра Сэм
152-Б. Идеальная химия

8 сезон

153-Б. Еще один крабсбургер
154-А. Не выходя из лодки
155-Б. Сентиментальный губка
157-А. Школа Сквидварда для взрослых
157-Б. Устное донесение
164-Б. Нянька Пат
172-А. Застывшая гримаса
Качество: HDTV 1080i
Формат: TS
Видео: MPEG4 Video (H264) 1920x1080 25.00fps ~5 800 Kbps
Аудио: Dolby AC3 48000Hz stereo 384kbps Rus
Аудио 2: Dolby AC3 48000Hz stereo 384kbps Eng
Субтитры: Отсутсвуют

Подробные технические данные

ОбщееИдентификатор : 14 (0xE)Полное имя : 153-Б. Еще один крабсбургер.tsФормат : MPEG-TSРазмер файла : 479 МбайтПродолжительность : 10 м.Режим общего битрейта : ПеременныйОбщий поток : 6104 Кбит/сек
ВидеоИдентификатор : 326 (0x146)Идентификатор меню : 14106 (0x371A)Формат : AVCФормат/Информация : Advanced Video CodecПрофиль формата : Main@L4Параметр CABAC формата : ДаПараметр ReFrames формата : 4 кадраИдентификатор кодека : 27Продолжительность : 10 м.Битрейт : 5026 Кбит/секШирина : 1920 пикселейВысота : 1080 пикселейСоотношение сторон : 16:9Частота кадров : 25,000 кадров/секСтандарт вещания : ComponentЦветовое пространство : YUVСубдискретизация насыщенности : 4:2:0Битовая глубина : 8 битТип развёртки : ЧересстрочнаяМетод сохранения типа развёртки : Раздельные поляПорядок развёртки : Верхнее поле первоеБит/(Пиксели*Кадры) : 0.097Размер потока : 394 Мбайт (82%)Цветовой диапазон : LimitedОсновные цвета : BT.709Характеристики трансфера : BT.709Коэффициенты матрицы : BT.709
Аудио #1Идентификатор : 406 (0x196)Идентификатор меню : 14106 (0x371A)Формат : AC-3Формат/Информация : Audio Coding 3Расширение режима : CM (complete main)Параметр Endianness формата : BigИдентификатор кодека : 6Продолжительность : 10 м.Вид битрейта : ПостоянныйБитрейт : 384 Кбит/секКаналы : 2 каналаРасположение каналов : Front: L RЧастота : 48,0 КГцЧастота кадров : 31,250 кадров/сек (1536 spf)Метод сжатия : С потерямиЗадержка видео : 112 мс.Размер потока : 30,1 Мбайт (6%)Язык : RussianЯзык, дополнительно : Clean effects
Аудио #2Идентификатор : 416 (0x1A0)Идентификатор меню : 14106 (0x371A)Формат : AC-3Формат/Информация : Audio Coding 3Расширение режима : CM (complete main)Параметр Endianness формата : BigИдентификатор кодека : 6Продолжительность : 10 м.Вид битрейта : ПостоянныйБитрейт : 384 Кбит/секКаналы : 2 каналаРасположение каналов : Front: L RЧастота : 48,0 КГцЧастота кадров : 31,250 кадров/сек (1536 spf)Метод сжатия : С потерямиЗадержка видео : 144 мс.Размер потока : 30,1 Мбайт (6%)Язык : EnglishЯзык, дополнительно : Clean effects

Скриншоты

Серии добавляются по мере их записи. Обновление в воскресенье.
Вне форума [Профиль] [ЛС]
Показать сообщения:    
Ответить на тему

Текущее время: Сегодня 17:29

Часовой пояс: GMT + 3



Вы не можете начинать темы
Вы не можете отвечать на сообщения
Вы не можете редактировать свои сообщения
Вы не можете удалять свои сообщения
Вы не можете голосовать в опросах
Вы не можете прикреплять файлы к сообщениям
Вы не можете скачивать файлы