Сегодня идет свободное скачивание без начисления Download

Гриффины / Family Guy / Сезон: 13 / Серии: 1-18 (18) (Сет МакФарлейн / Seth MacFarlane) [2014, Комедия абсудра, пародия, чёрный юмор, WEB-DL 720p] Sub (Rus, Eng)

Ответить на тему
 
Автор
Сообщение

Omen ®

Стаж: 4 года 10 месяцев

Сообщений: 190643

Торрент-статистика

Пост 02-Дек-2015 15:00

[Цитировать]

Гриффины / Family Guy / 13-й сезон
Страна: США
Жанр: Комедия абсудра, пародия, чёрный юмор
Продолжительность 1-й серии: 00:43:43
Продолжительность 2-18 серий: 0:21:35
Год выпуска: 2014
Перевод: Субтитры
Русские субтитры: Есть
Режиссёр: Сет МакФарлейн / Seth MacFarlane
Роли озвучивали: Сет МакФарлейн, Алекс Борштейн, Сет Грин, Мила Кунис, Майк Генри, Дэнни Смит, Патрик Варбертон, Джон Винер, Алек Салкин, Ральф Гармен
Описание: Основное действие сериала разворачивается в Куахоге, вымышленном пригороде Провиденса, штат Род-Айленд. Сюжет вращается вокруг семьи Питера Гриффина — неуклюжего синего воротничка, католика с ирландско-американскими корнями и выраженным род-айлендским акцентом. Он женат на Лоис, домохозяйке и учителе музыки с ярко выраженным акцентом Новой Англии из состоятельной светской семьи Пьютершмидт. У Питера и Лоис трое детей: дочь-подросток Мег, которая плохо вписывается в общество своей школы и которую нередко высмеивает или игнорирует собственная семья; сын-подросток Крис, имеющий избыточный вес и во многом похожий по характеру и поступкам на своего отца, и злодей-младенец Стьюи с неоднозначной сексуальной ориентацией и взрослыми манерами. С Гриффинами живёт антропоморфный пёс, Брайан, который пьёт мартини и разговаривает, но сохраняет при этом повадки животного.
Список серий:
01. The Simpsons Guy
02. The Book of Joe
03. Baking Bad
04. Brian the Closer
05. Turkey Guys
06. The 2000-Year-Old Virgin
07. Stewie, Chris & Brian's Excellent Adventure
08. Our Idiot Brian
09. This Little Piggy
10. Quagmire's Mom
11. Encyclopedia Griffin
12. Stewie is Enceinte
13. Dr. C & the Women
14. JOLO
15. Once Bitten
16. Roasted Guy
17. Fighting Irish
18. Take My Wife
Ссылка на предыдущие и альтернативные раздачи: http:///*spam*//forum/tracker.php?f=1247
Качество: WEB-DL
Формат: MKV
Видео: H.264, 1280x720 (16:9), 23.976 fps, ~3652 kbps, 0.165 bit/pixel
Аудио: AC3, 48 kHz, 6 ch, 384 kbps
Субтитры: Русские (от разных переводчиков), английские.

Дополнительная информация

Хочется попросить у всех прощения за качество перевода и предупредить, что вашим глазам может стать очень больно в некоторых местах. К сожалению, нет никакой возможности заниматься вычиткой, правкой и добавлением надписей, которые остались без перевода. Я лишь синхронизировал титры, и это всё, на что у меня есть время. Если захочется поблагодарить героев, их имена есть в конце каждой серии.

Подробные технические данные

GeneralComplete name : Family.Guy.S13E01.The.Simpsons.Guy.[720p.WEB-DL.DD5.1.Rus.Eng.Subs].mkvFormat : MatroskaFormat version : Version 4 / Version 2File size : 1.44 GiBDuration : 43mn 43sDURATION : 00:43:43.072000000NUMBER_OF_FRAMES : 81971NUMBER_OF_BYTES : 62953728
VideoID : 1Format : AVCFormat/Info : Advanced Video CodecFormat profile : High@L3.1Format settings, CABAC : NoFormat settings, ReFrames : 2 framesCodec ID : V_MPEG4/ISO/AVCDuration : 43mn 43sBit rate : 3 652 KbpsWidth : 1 280 pixelsHeight : 720 pixelsDisplay aspect ratio : 16:9Frame rate mode : ConstantFrame rate : 23.976 fpsColor space : YUVChroma subsampling : 4:2:0Bit depth : 8 bitsScan type : ProgressiveBits/(Pixel*Frame) : 0.165Stream size : 1.12 GiB (78%)Language : EnglishDefault : YesForced : NoColor primaries : BT.709Transfer characteristics : BT.709Matrix coefficients : BT.709
Audio #1ID : 2Format : AC-3Format/Info : Audio Coding 3Mode extension : CM (complete main)Format settings, Endianness : BigCodec ID : A_AC3Duration : 43mn 43sBit rate mode : ConstantBit rate : 384 KbpsChannel(s) : 6 channelsChannel positions : Front: L C R, Side: L R, LFESampling rate : 48.0 KHzBit depth : 16 bitsCompression mode : LossyStream size : 120 MiB (8%)Title : OriginalLanguage : EnglishDefault : NoForced : No
TextText #1ID : 3Format : UTF-8Codec ID : S_TEXT/UTF8Codec ID/Info : UTF-8 Plain TextTitle : RusLanguage : RussianDefault : YesForced : No
Text #2ID : 4Format : UTF-8Codec ID : S_TEXT/UTF8Codec ID/Info : UTF-8 Plain TextTitle : EngLanguage : EnglishDefault : NoForced : No

Скриншоты

Вне форума [Профиль] [ЛС]
Показать сообщения:    
Ответить на тему

Текущее время: Сегодня 18:33

Часовой пояс: GMT + 3



Вы не можете начинать темы
Вы не можете отвечать на сообщения
Вы не можете редактировать свои сообщения
Вы не можете удалять свои сообщения
Вы не можете голосовать в опросах
Вы не можете прикреплять файлы к сообщениям
Вы не можете скачивать файлы