Сегодня идет свободное скачивание без начисления Download

Гриффины (сезон 5, диск 1-3) / Family Guy (Neil Affleck, Greg Colton, Gavin Dell, Michael Dimartino, Jack Dyer (III)) [2005 г., мультсериал, DVD5]

Ответить на тему
 
Автор
Сообщение

Omen ®

Стаж: 5 лет

Сообщений: 190529

Торрент-статистика

Пост 28-Ноя-2015 21:00

[Цитировать]

Гриффины / Family Guy
Страна: США
Жанр: Мультсериал
Продолжительность: ~22 мин серия
Год выпуска: 2005
Перевод: Профессиональный (многоголосый, закадровый)
Русские субтитры: нет
Режиссёр: Neil Affleck, Greg Colton, Gavin Dell, Michael Dimartino, Jack Dyer (III)
Описание: Комедийный мультфильм - сериал «Гриффины» (В оригинале — "Family Guy" - человек семейный) представляют истории из повседневной жизни семейства Гриффинов — типичных жителей Новой Англии, исполненные неожиданных, а порой и парадоксальных, поворотов и подаваемые под совершенно необычным углом зрения, каковой способна обеспечить только анимация. Глава семейства, Питер, готов из кожи вон лезть, дабы обеспечить своих близких всем необходимым. Однако, по ходу осуществления задуманного, часто попадает впросак.
Его жена, Лоис, пытается всеми силами и в любых ситуациях «сохранять лицо», но тоже не всегда в этом преуспевает. Старшие дети Гриффинов, Мэгги и Крис, не упускают возможности при всяком удобном и неудобном случае все в доме поставить с ног на голову. Младший отпрыск семейства, дьявольски одаренный от природы Стюи, все свои таланты растрачивает на то, чтобы сжить со света всех родственников и, в конечном итоге, ни много-ни мало, стать властелином мира. И, наконец, есть еще Брайан, который, как не редко выясняется, является самым умным из обитателей дома, в котором проживает семейство. То, что он является домашним псом Гриффинов, никак не влияет на ситуацию.
Уже на протяжении трех лет сериал гриффины идет с огромным успехом в США, на сети Фокс. По своим рейтинговым показателям и завоеванной у аудитории популярности он ничем не уступает всемирно известным фоксовским хитам в этом жанре сериалу "Футурама" и "Симпсонам".
С не меньшим восторгом его всегда принимает и критика.
Список серий:
Диск 1
1. ПТВ (PTV)
2. Брайен возвращается в колледж (Brian Goes Back to College)
3. Ухаживания отца Стьюи (The Courtship of Stewie's Father)
4. Душитель толстяков (The Fat Guy Strangler)
5. Отец, сын и святой Фонзи (The Father, the Son, and the Holy Fonz)
Диск 2
1. Брайен поет и бедакурит (Brian Sings and Swings)
2. Игры патриотов (Patriot Games)
3. Я выбираю Квагмайера (I Take Thee Quagmire)
4. Детская ревность (Sibling Rivalry)
5. Глубокие глотки (Deep Throats)
Диск 3
1. Пиротика (Peterotica)
2. Теперь ты можешь поцеловать... эээ... парня (You May Now Kiss the...Uh...Guy Who Receives)
3. Питергейст (Petergeist)
4. История семьи Гриффинов (Untitled Griffin Family History)
5. Удаленные сцены
Доп. информация:
Орлоф писал(а):
Цитата:
Последний - пятый сезон от спирнгфилд.ру на самом деле, как вы я думаю уже догадались является оставшимися сериями настоящего четвертого сезона. Во многих сериях присутствуют вырезанные сцены, которые к сожалению остались без перевода (может вырезали еще до дубляжа?) Общая информация взята с предыдущих релизов (спасибо товарищу scar-raver - избавил от мороки)
Перезалил релиз от Орлоф, три диска распаковал, те были в образе, многие жаловались + раздача третьего диска умерла очень давно, но я все таки докачал его, на что ушло больше года), подробней
Семпл: http://multi-up.com/1076731
Качество: DVD5
Формат: DVD-Video
Видео: MPEG2, 720x576, 25 fps, 5 437 Kbps (4:3)
Аудио 1: AC3, 48000Hz, 6ch, 448 Kbps (Original)
Аудио 2: AC3, 48000Hz, 2ch, 192 Kbps (MVO)
Аудио 3: AC3, 48000Hz, 2ch, 192 Kbps (Commentary)
Субтитры: Английские

Подробные технические данные

GeneralComplete name : D:\Сезон 5\Griffiny_s05_d03\VIDEO_TS\VTS_01_1.VOBFormat : MPEG-PSFile size : 976 MiBDuration : 21mn 20sOverall bit rate mode : VariableOverall bit rate : 6 396 Kbps
VideoID : 224 (0xE0)Format : MPEG VideoFormat version : Version 2Format profile : Main@MainFormat settings, BVOP : YesFormat settings, Matrix : CustomFormat settings, GOP : M=3, N=15Duration : 21mn 20sBit rate mode : VariableBit rate : 5 437 KbpsMaximum bit rate : 7 500 KbpsWidth : 720 pixelsHeight : 576 pixelsDisplay aspect ratio : 4:3Frame rate : 25.000 fpsStandard : PALColor space : YUVChroma subsampling : 4:2:0Bit depth : 8 bitsScan type : ProgressiveScan order : Top Field FirstCompression mode : LossyBits/(Pixel*Frame) : 0.524Time code of first frame : 00:00:00:00Time code source : Group of pictures headerGOP, Open/Closed : OpenGOP, Open/Closed of first fram : ClosedStream size : 830 MiB (85%)
Audio #1ID : 189 (0xBD)-128 (0x80)Format : AC-3Format/Info : Audio Coding 3Mode extension : CM (complete main)Format settings, Endianness : BigMuxing mode : DVD-VideoDuration : 21mn 20sBit rate mode : ConstantBit rate : 448 KbpsChannel(s) : 6 channelsChannel positions : Front: L C R, Side: L R, LFESampling rate : 48.0 KHzCompression mode : LossyStream size : 68.4 MiB (7%)
Audio #2ID : 189 (0xBD)-129 (0x81)Format : AC-3Format/Info : Audio Coding 3Mode extension : CM (complete main)Format settings, Endianness : BigMuxing mode : DVD-VideoDuration : 21mn 20sBit rate mode : ConstantBit rate : 192 KbpsChannel(s) : 2 channelsChannel positions : Front: L RSampling rate : 48.0 KHzCompression mode : LossyStream size : 29.3 MiB (3%)
Audio #3ID : 189 (0xBD)-130 (0x82)Format : AC-3Format/Info : Audio Coding 3Mode extension : CM (complete main)Format settings, Endianness : BigMuxing mode : DVD-VideoDuration : 21mn 20sBit rate mode : ConstantBit rate : 192 KbpsChannel(s) : 2 channelsChannel positions : Front: L RSampling rate : 48.0 KHzCompression mode : LossyStream size : 29.3 MiB (3%)
Text #1ID : 189 (0xBD)-32 (0x20)Format : RLEFormat/Info : Run-length encodingMuxing mode : DVD-VideoDuration : 21mn 15sDelay relative to video : 1s 200ms
Text #2ID : 189 (0xBD)-33 (0x21)Format : RLEFormat/Info : Run-length encodingMuxing mode : DVD-Video
Menu

Скриншоты меню

Скриншоты

Вне форума [Профиль] [ЛС]
Показать сообщения:    
Ответить на тему

Текущее время: Сегодня 17:34

Часовой пояс: GMT + 3



Вы не можете начинать темы
Вы не можете отвечать на сообщения
Вы не можете редактировать свои сообщения
Вы не можете удалять свои сообщения
Вы не можете голосовать в опросах
Вы не можете прикреплять файлы к сообщениям
Вы не можете скачивать файлы