Сегодня идет свободное скачивание без начисления Download

Перевозчик: Трилогия / The Transporter: Trilogy [2002 г., 2005 г., 2008 г., Боевик, триллер, криминал, BDRip 720p]

Ответить на тему
 
Автор
Сообщение

zeke ®

Пол:

Стаж: 7 лет 5 месяцев

Сообщений: 96

Торрент-статистика

Пост 18-Фев-2011 18:24

[Цитировать]

Перевозчик: Трилогия / The Transporter: Trilogy- Год выхода: 2002 г., 2005 г., 2008 г.
Страна: США, Франция, Великобритания
Продолжительность: 01:32:09, 01:27:38, 01:43:34
Перевод: Профессиональный (полное дублирование)
Жанр: Боевик, триллер, криминал
Режиссер: Кори Юэнь, Луи Летерье, Оливье Мегатон
В ролях: Джейсон Стэтхэм, Шу Ци, Мэтт Шульце, Франсуа Берлеан, Рик Янг, Даг Рэнд, Дидье Сен Мелен, Тони Десканвелль, Лорен Деспонд, Маттье Альбертини, Алессандро Гассман, Эмбер Валлетта, Кейт Наута, Мэтью Модайн, Джейсон Флеминг, Кит Дэвид, Хантер Клэри, Шеннон Бриггс, Наталья Рудакова, Роберт Нэппер, Ерун Краббе, Алекс Коболд, Дэвид Атракчи, Ян Сандберг, Эрик Эбони, Дэвид Камменос
Описание:
Перевозчик
Бывший десантник Фрэнк Мартин имеет неплохой бизнес — перевозит любые грузы по французскому Средиземноморью и делает свою работу быстро и качественно. Недостатка в клиентах нет, ведь, он всегда неукоснительно соблюдает три правила: не меняет условий сделки, не спрашивает никаких имен и никогда не заглядывает в багаж. Но однажды, перевозя груз клиента по имени Уолл Стрит, Фрэнк обнаруживает, что мешок шевелится. Впервые за все время Мартин нарушает правило, заглядывает внутрь пакета и обнаруживает там красивую женщину, которая оказывается дочерью видного китайского мафиози...
Перевозчик 2
Бывший сотрудник спецподразделения Фрэнк Мартин, известный также как Перевозчик, уходит от дел и поселяется в Майами, где устраивается шофером в богатую семью. С маленьким сыном этого семейства у него завязываются дружеские отношения.Когда же мальчика похищают, Мартину приходится использовать свои профессиональные навыки, чтобы вернуть парнишку в целости и сохранности, а также раскрыть зловещий план похитителя...
Перевозчик 3
После своих последних приключений в Майами, Фрэнк Мартин решил поменять работу «перевозчика» на спокойную и уединенную жизнь во французской Ривьере. Но его планам не суждено было сбыться, когда к нему обратился бывший солдат из отряда «Дельта» Йонас Джонсон. Он рассказал, что по заказу корпорации «Ecocorp», занимающейся переработкой и утилизацией отходов, похищена Валентина — дочь украинского министра по охране окружающей среды Леонида Фазилева — чтобы путем вымогательства получить официальное разрешение для утилизации ядовитых отходов в Украине.Теперь задача героя — доставить Валентину через Европу в Одессу. Чтобы обеспечить выполнение задания, Джонсон одевает Фрэнку и Валентине электронные браслеты, которые могут взорваться, если их обладатели удаляются на 20 метров от автомобиля. Выполняя это задание, главному герою придется столкнуться с новыми опасностями, которые связаны не только с его заказом...

Перевозчик

Качество: BDRip 720p
Контейнер: MKV
Видео кодек: H.264
Аудио кодек: AC3
Видео: 1280x528 (16:9), 23.976 fps, 4 208 Kbps, H.264, Profile High@L4.1
Аудио: AC3, Russian, 5.1 channels, 448kbps, 16 bits, 48.0 KHz

Перевозчик 2

Качество: BDRip 720p
Контейнер: MKV
Видео кодек: H.264
Аудио кодек: AC3
Видео: 1280x528 (16:9), 23.976 fps, 4 449 Kbps, H.264, Profile High@L4.1
Аудио: AC3, Russian, 5.1 channels, 448kbps, 16 bits, 48.0 KHz

Перевозчик 3

Качество: BDRip 720p
Контейнер: MKV
Видео кодек: H.264
Аудио кодек: AC3
Видео: 1280x544 (16:9), 23.976 fps, 3 695 Kbps, H.264, Profile High@L4.1
Аудио: AC3, Russian, 5.1 channels, 448kbps, 16 bits, 48.0 KHz

MediaInfo Перевозчик

General
Unique ID : 222390308910496954140621647310053618831 (0xA74ED0C66469EB50BFBDCA681E42B48F)
Complete name : E:Перевозчик (1-3) [BDRip 720p] (2002, 2005, 2008)Перевозчик 1 [BDRip 720p] (2002).mkv
Format : Matroska
File size : 3.00 GiB
Duration : 1h 32mn
Overall bit rate : 4 655 Kbps
Encoded date : UTC 2011-02-12 13:18:53
Writing application : mkvmerge v4.4.0 ('Die Wiederkehr') сборка от Oct 31 2010 21:52:48
Writing library : libebml v1.0.0 + libmatroska v1.0.0
Video
ID : 1
Format : AVC
Format/Info : Advanced Video Codec
Format profile : High@L4.1
Format settings, CABAC : Yes
Format settings, ReFrames : 16 frames
Muxing mode : Header stripping
Codec ID : V_MPEG4/ISO/AVC
Duration : 1h 32mn
Bit rate : 4 208 Kbps
Width : 1 280 pixels
Height : 528 pixels
Display aspect ratio : 2.40:1
Frame rate : 23.976 fps
Color space : YUV
Chroma subsampling : 4:2:0
Bit depth : 8 bits
Scan type : Progressive
Bits/(Pixel*Frame) : 0.260
Stream size : 2.65 GiB (88%)
Title : Freeisland.HD
Writing library : x264 core 112 r1867 22bfd31
Encoding settings : cabac=1 / ref=16 / deblock=1:-1:-1 / analyse=0x3:0x133 / me=hex / subme=8 / psy=1 / psy_rd=1.00:0.15 / mixed_ref=1 / me_range=16 / chroma_me=1 / trellis=1 / 8x8dct=1 / cqm=0 / deadzone=21,11 / fast_pskip=1 / chroma_qp_offset=-3 / threads=2 / sliced_threads=0 / nr=0 / decimate=1 / interlaced=0 / constrained_intra=0 / bframes=8 / b_pyramid=2 / b_adapt=2 / b_bias=0 / direct=3 / weightb=1 / open_gop=0 / weightp=2 / keyint=250 / keyint_min=23 / scenecut=40 / intra_refresh=0 / rc_lookahead=50 / rc=2pass / mbtree=1 / bitrate=4208 / ratetol=1.0 / qcomp=0.60 / qpmin=0 / qpmax=51 / qpstep=4 / cplxblur=20.0 / qblur=0.5 / ip_ratio=1.40 / aq=1:1.00
Language : English
Audio
ID : 2
Format : AC-3
Format/Info : Audio Coding 3
Mode extension : CM (complete main)
Muxing mode : Header stripping
Codec ID : A_AC3
Duration : 1h 32mn
Bit rate mode : Constant
Bit rate : 448 Kbps
Channel(s) : 6 channels
Channel positions : Front: L C R, Side: L R, LFE
Sampling rate : 48.0 KHz
Bit depth : 16 bits
Compression mode : Lossy
Stream size : 295 MiB (10%)
Title : AC3, Russian, 5.1 channels, 448kbps, 16 bits, 48.0 KHz
Language : Russian

MediaInfo Перевозчик 2

General
Unique ID : 181582215482609816280341997080498591413 (0x889B766E0AD90DB9AB27F27DA5B6D6B5)
Complete name : E:Перевозчик (1-3) [BDRip 720p] (2002, 2005, 2008)Перевозчик 2 [BDRip 720p] (2005).mkv
Format : Matroska
File size : 3.00 GiB
Duration : 1h 27mn
Overall bit rate : 4 896 Kbps
Encoded date : UTC 2011-02-09 16:59:29
Writing application : mkvmerge v4.4.0 ('Die Wiederkehr') сборка от Oct 31 2010 21:52:48
Writing library : libebml v1.0.0 + libmatroska v1.0.0
Video
ID : 1
Format : AVC
Format/Info : Advanced Video Codec
Format profile : High@L4.1
Format settings, CABAC : Yes
Format settings, ReFrames : 16 frames
Muxing mode : Header stripping
Codec ID : V_MPEG4/ISO/AVC
Duration : 1h 27mn
Bit rate : 4 449 Kbps
Width : 1 280 pixels
Height : 528 pixels
Display aspect ratio : 2.40:1
Frame rate : 23.976 fps
Color space : YUV
Chroma subsampling : 4:2:0
Bit depth : 8 bits
Scan type : Progressive
Bits/(Pixel*Frame) : 0.275
Stream size : 2.66 GiB (89%)
Title : Freeisland.HD
Writing library : x264 core 112 r1867 22bfd31
Encoding settings : cabac=1 / ref=16 / deblock=1:-1:-1 / analyse=0x3:0x133 / me=hex / subme=8 / psy=1 / psy_rd=1.00:0.15 / mixed_ref=1 / me_range=16 / chroma_me=1 / trellis=1 / 8x8dct=1 / cqm=0 / deadzone=21,11 / fast_pskip=1 / chroma_qp_offset=-3 / threads=2 / sliced_threads=0 / nr=0 / decimate=1 / interlaced=0 / constrained_intra=0 / bframes=8 / b_pyramid=2 / b_adapt=2 / b_bias=0 / direct=3 / weightb=1 / open_gop=0 / weightp=2 / keyint=250 / keyint_min=23 / scenecut=40 / intra_refresh=0 / rc_lookahead=50 / rc=2pass / mbtree=1 / bitrate=4449 / ratetol=1.0 / qcomp=0.60 / qpmin=0 / qpmax=51 / qpstep=4 / cplxblur=20.0 / qblur=0.5 / ip_ratio=1.40 / aq=1:1.00
Language : English
Audio
ID : 2
Format : AC-3
Format/Info : Audio Coding 3
Mode extension : CM (complete main)
Muxing mode : Header stripping
Codec ID : A_AC3
Duration : 1h 27mn
Bit rate mode : Constant
Bit rate : 448 Kbps
Channel(s) : 6 channels
Channel positions : Front: L C R, Side: L R, LFE
Sampling rate : 48.0 KHz
Bit depth : 16 bits
Compression mode : Lossy
Stream size : 281 MiB (9%)
Title : AC3, Russian, 5.1 channels, 448kbps, 16 bits, 48.0 KHz
Language : Russian

MediaInfo Перевозчик 3

General
Unique ID : 210734009350948151501795530674359149316 (0x9E89E4D60A00C102AF2B6A81802EA304)
Complete name : E:Перевозчик (1-3) [BDRip 720p] (2002, 2005, 2008)Перевозчик 3 [BDRip 720p] (2008).mkv
Format : Matroska
File size : 3.00 GiB
Duration : 1h 43mn
Overall bit rate : 4 143 Kbps
Encoded date : UTC 2011-02-08 19:07:21
Writing application : mkvmerge v4.4.0 ('Die Wiederkehr') сборка от Oct 31 2010 21:52:48
Writing library : libebml v1.0.0 + libmatroska v1.0.0
Video
ID : 1
Format : AVC
Format/Info : Advanced Video Codec
Format profile : High@L4.1
Format settings, CABAC : Yes
Format settings, ReFrames : 16 frames
Muxing mode : Header stripping
Codec ID : V_MPEG4/ISO/AVC
Duration : 1h 43mn
Bit rate : 3 695 Kbps
Width : 1 280 pixels
Height : 544 pixels
Display aspect ratio : 2.35:1
Frame rate : 23.976 fps
Color space : YUV
Chroma subsampling : 4:2:0
Bit depth : 8 bits
Scan type : Progressive
Bits/(Pixel*Frame) : 0.221
Stream size : 2.61 GiB (87%)
Title : Freeisland.HD
Writing library : x264 core 112 r1867 22bfd31
Encoding settings : cabac=1 / ref=16 / deblock=1:-1:-1 / analyse=0x3:0x133 / me=hex / subme=8 / psy=1 / psy_rd=1.00:0.15 / mixed_ref=1 / me_range=16 / chroma_me=1 / trellis=1 / 8x8dct=1 / cqm=0 / deadzone=21,11 / fast_pskip=1 / chroma_qp_offset=-3 / threads=2 / sliced_threads=0 / nr=0 / decimate=1 / interlaced=0 / constrained_intra=0 / bframes=8 / b_pyramid=2 / b_adapt=2 / b_bias=0 / direct=3 / weightb=1 / open_gop=0 / weightp=2 / keyint=250 / keyint_min=23 / scenecut=40 / intra_refresh=0 / rc_lookahead=50 / rc=2pass / mbtree=1 / bitrate=3695 / ratetol=1.0 / qcomp=0.60 / qpmin=0 / qpmax=51 / qpstep=4 / cplxblur=20.0 / qblur=0.5 / ip_ratio=1.40 / aq=1:1.00
Language : English
Audio
ID : 2
Format : AC-3
Format/Info : Audio Coding 3
Mode extension : CM (complete main)
Muxing mode : Header stripping
Codec ID : A_AC3
Duration : 1h 43mn
Bit rate mode : Constant
Bit rate : 448 Kbps
Channel(s) : 6 channels
Channel positions : Front: L C R, Side: L R, LFE
Sampling rate : 48.0 KHz
Bit depth : 16 bits
Compression mode : Lossy
Stream size : 332 MiB (11%)
Title : AC3, Russian, 5.1 channels, 448kbps, 16 bits, 48.0 KHz
Language : Russian
Сэмпл Перевозчик / Сэмпл Перевозчик 2 / Сэмпл Перевозчик 3

Скриншоты

   -   -   

_________________
|LOST|


Последний раз редактировалось: zeke (2011-02-18 20:12), всего редактировалось 3 раз(а)
Вне форума [Профиль] [ЛС]

Dracula

Стаж: 3 года 11 месяцев

Сообщений: 10189

Торрент-статистика

Пост 13-Мар-2011 14:05 (спустя 22 дня)

Топик был перенесен из форума Зарубежное кино (HD Video) в форум Антология (DVD, HD Video)

zeke
 
Похожие темы
Форум Тема Автор Торрент Отв. Посл. сообщение
./templates/default/images/folder_dl.gif Компьютерная литература Михаил Райтман (переводчик) | Adobe Photoshop Lightroom 5. Официальный учебный курс [+Диск] (2014) [PDF] Omen
1 | 0

0 | 191

5

2016-03-09 03:54
Omen Последнее
./templates/default/images/folder_dl.gif Медицина и Здоровье Н.Н. Савельев | Уколы, капельницы, перевязки и другие медицинские процедуры и манипуляции (2017) [FB2, RTF] }{@R0N
1 | 0

0 | 14323

2

2017-03-01 22:25
}{@R0N Последнее
Показать сообщения:    
Ответить на тему

Текущее время: Сегодня 06:23

Часовой пояс: GMT + 3



Вы не можете начинать темы
Вы не можете отвечать на сообщения
Вы не можете редактировать свои сообщения
Вы не можете удалять свои сообщения
Вы не можете голосовать в опросах
Вы не можете прикреплять файлы к сообщениям
Вы не можете скачивать файлы