Today is a free download without charge Download

Черная смерть / Black Death (Кристофер Смит) [2010 г., детектив, триллер, драма, приключения, BDRip-AVC]

Reply to topic
 
Author
Message

Region_13 ®

Gender:

Longevity: 6 years

Posts: 782

Location: Мальдивы

Торрент-статистика

Post 21-Nov-2015 11:27

[Quote]

Черная смерть / Black Death
Год выпуска: 2010
Страна: Германия, Великобритания
Жанр: детектив, триллер, драма, приключения
Продолжительность: 98 мин. / 01:38
Перевод:Профессиональный многоголосый (Лицензия Blu-ray)
Режиссер: Кристофер Смит
Продюссер: Роберт Бернштейн, Йенс Мойрер, Дуглас Рэй
Сценарий: Дарио Полони
Бюджет: $10 800 000
Премьера в мире: 26 мая 2010
лицам до 17 лет обязательно присутствие взрослого


В ролях: Шон Бин Кэрис Ван Хаутен Эдди Редмэйн Кимберли Никсон Дэвид Уорнер Энди Найман Джон Линч Тим МакИннерни Джонни Харрис Emun Elliot
Описание: Средневековая Англия попала под тень Черной смерти. В этом апокалипсическом мире, заполненном страхом и суеверием, собираются несколько монахов объединенных одной целью — выследить того, кто способен возвращать к жизни умерших от чумы.

Качество: BDRip-AVC
Формат: MKV
Видео кодек: H.26x
Аудио кодек: AC3
Видео: MPEG-4 AVC, 1728 Кбит/с, 876x364, 24.000 кадр/с
Аудио: Русский (AC3, 6 ch, 448 Кбит/c, 48,0 КГц), английский (AC3, 2 ch, 192 Кбит/c, 48,0 КГц)

Скриншоты

                 

MI

Общее
Уникальный идентификатор : 219049723495413871895763859120789350167 (0xA4CB7132A3DBC8F6AC1EBD6F7F136717)
Полное имя : E:\Chernaya.smert.2010.x264.BDRip.AVC.mkv
Формат : Matroska
Версия формата : Version 1
Размер файла : 1,68 Гбайт
Продолжительность : 1 ч. 41 м.
Общий поток : 2371 Кбит/сек
Название фильма : Черная смерть / Black Death (2010) BDRip-AVC - firebit.org
Дата кодирования : UTC 2011-11-07 19:27:14
Программа кодирования : mkvmerge v2.3.0 ('Freak U') built on Sep 8 2008 18:32:16
Библиотека кодирования : libebml v0.7.7 + libmatroska v0.8.1
Видео
Идентификатор : 1
Формат : AVC
Формат/Информация : Advanced Video Codec
Профиль формата : High@L3.1
Параметр CABAC формата : Да
Параметр ReFrames формата : 10 кадров
Идентификатор кодека : V_MPEG4/ISO/AVC
Продолжительность : 1 ч. 41 м.
Битрейт : 1728 Кбит/сек
Ширина : 876 пикселей
Высота : 364 пикселя
Соотношение сторон : 2,40:1
Режим частоты кадров : Постоянный
Частота кадров : 24,000 кадра/сек
Цветовое пространство : YUV
Субдискретизация насыщенности : 4:2:0
Битовая глубина : 8 бит
Тип развёртки : Прогрессивная
Бит/(Пиксели*Кадры) : 0.226
Размер потока : 1,19 Гбайт (71%)
Заголовок : http://firebit.org
Библиотека кодирования : x264 core 105 r1732 2b04482
Настройки программы : cabac=1 / ref=10 / deblock=1:-2:-1 / analyse=0x3:0x133 / me=umh / subme=10 / psy=1 / psy_rd=0.90:0.10 / mixed_ref=1 / me_range=32 / chroma_me=1 / trellis=2 / 8x8dct=1 / cqm=0 / deadzone=21,11 / fast_pskip=1 / chroma_qp_offset=-3 / threads=3 / sliced_threads=0 / nr=0 / decimate=1 / interlaced=0 / constrained_intra=0 / bframes=10 / b_pyramid=2 / b_adapt=2 / b_bias=0 / direct=3 / weightb=1 / open_gop=0 / weightp=2 / keyint=250 / keyint_min=24 / scenecut=40 / intra_refresh=0 / rc=2pass / mbtree=0 / bitrate=1728 / ratetol=1.0 / qcomp=0.65 / qpmin=10 / qpmax=51 / qpstep=4 / cplxblur=20.0 / qblur=0.5 / ip_ratio=1.40 / pb_ratio=1.30 / aq=2:1.00 / zones=137055,146128,q=35
Язык : German
Default : Да
Forced : Нет
Цветовой диапазон : Limited
Коэффициенты матрицы : BT.709
Аудио #1
Идентификатор : 2
Формат : AC-3
Формат/Информация : Audio Coding 3
Расширение режима : CM (complete main)
Параметр Endianness формата : Big
Идентификатор кодека : A_AC3
Продолжительность : 1 ч. 41 м.
Вид битрейта : Постоянный
Битрейт : 448 Кбит/сек
Каналы : 6 каналов
Расположение каналов : Front: L C R, Side: L R, LFE
Частота : 48,0 КГц
Метод сжатия : С потерями
Размер потока : 325 Мбайт (19%)
Заголовок : http://firebit.org
Язык : Russian
Default : Да
Forced : Нет
Аудио #2
Идентификатор : 3
Формат : AC-3
Формат/Информация : Audio Coding 3
Расширение режима : CM (complete main)
Параметр Endianness формата : Big
Идентификатор кодека : A_AC3
Продолжительность : 1 ч. 41 м.
Вид битрейта : Постоянный
Битрейт : 192 Кбит/сек
Каналы : 2 канала
Расположение каналов : Front: L R
Частота : 48,0 КГц
Метод сжатия : С потерями
Размер потока : 139 Мбайт (8%)
Заголовок : http://firebit.org
Язык : English
Default : Нет
Forced : Нет
Текст #1
Идентификатор : 4
Формат : UTF-8
Идентификатор кодека : S_TEXT/UTF8
Идентификатор кодека/Информация : UTF-8 Plain Text
Заголовок : http://firebit.org
Язык : English
Default : Да
Forced : Нет
Текст #2
Идентификатор : 5
Формат : UTF-8
Идентификатор кодека : S_TEXT/UTF8
Идентификатор кодека/Информация : UTF-8 Plain Text
Заголовок : http://firebit.org
Язык : Russian
Default : Нет
Forced : Нет
Текст #3
Идентификатор : 6
Формат : UTF-8
Идентификатор кодека : S_TEXT/UTF8
Идентификатор кодека/Информация : UTF-8 Plain Text
Заголовок : http://firebit.org
Язык : English
Default : Нет
Forced : Нет

_________________
Other forum [Profile] [PM]
Display posts from previous:    
Reply to topic

The time now is: Today 20:45

All times are GMT + 3 Hours



You cannot post new topics in this forum
You cannot reply to topics in this forum
You cannot edit your posts in this forum
You cannot delete your posts in this forum
You cannot vote in polls in this forum
You cannot attach files in this forum
You cannot download files in this forum