Today is a free download without charge Download

VA - Осенний марафон № 204 / (Дискотека с размахом № 3) [2015 г., Pop, Dance, Latino, Country, House, Chill Out, Rap, Indie, Rock, HDTVRip]1080p

Reply to topic
 
Author
Message

Region_13 ®

Gender:

Longevity: 6 years 9 months

Posts: 782

Location: Мальдивы

Торрент-статистика

Post 17-Nov-2015 19:12

[Quote]

VA - Осенний марафон № 204 / (Дискотека с размахом № 3-1080p)
Год выпуска: 2015
Страна: Россия/America
Жанр: Pop, Dance, Latino, Country, House, Chill Out, Rap, Indie, Rock
Продолжительность: 01:28:05
Перевод: Не требуется
Описание: Осенние (12.11.2015) поп. новинки зарубежной и русской эстрады. В сборник вошло девять премьер российской эстрады, такие например как новый клип на песню Юрия Шатунова "И я под гитару". Не пропустите, держите новые треки.
Качество: HDTVRip
Формат: MKV
Видео кодек:MPEG-4 AVC/H.264
Аудио кодек: AC3
Видео: 1920x1080 (16:9), 25.000 fps, AVC, Main@L4, 4803 ~ 4198 kbps avg, 0.093 ~ 0.081 bit.pixel
Аудио: 48.0 KHz, 6 ch, AC3, CBR (постоянный), 320 Kbps avg

MI

Общее
Полное имя : E:\VA - Осенний марафон № 204 (Дискотека с размахом № 3)\02. Alexander Rybak ft. Pernille Hogstad Stene - Venner fra fortellingen om Trolle (Official Video).mp4
Формат : MPEG-4
Профиль формата : Base Media
Идентификатор кодека : isom
Размер файла : 116 Мбайт
Продолжительность : 3 м. 29 с.
Общий поток : 4635 Кбит/сек
Дата кодирования : UTC 2015-11-09 04:27:25
Дата пометки : UTC 2015-11-09 04:27:25
Программа кодирования : Lavf54.63.104
Видео
Идентификатор : 1
Формат : AVC
Формат/Информация : Advanced Video Codec
Профиль формата : Main@L4
Параметр CABAC формата : Да
Параметр ReFrames формата : 1 кадр
Идентификатор кодека : avc1
Идентификатор кодека/Информация : Advanced Video Coding
Продолжительность : 3 м. 29 с.
Битрейт : 4496 Кбит/сек
Ширина : 1920 пикселей
Высота : 1080 пикселей
Соотношение сторон : 16:9
Режим частоты кадров : Постоянный
Частота кадров : 25,000 кадров/сек
Цветовое пространство : YUV
Субдискретизация насыщенности : 4:2:0
Битовая глубина : 8 бит
Тип развёртки : Прогрессивная
Бит/(Пиксели*Кадры) : 0.087
Размер потока : 108 Мбайт (93%)
Библиотека кодирования : x264 core 129
Настройки программы : cabac=1 / ref=1 / deblock=1:0:0 / analyse=0x1:0x131 / me=dia / subme=2 / psy=1 / psy_rd=1.00:0.00 / mixed_ref=0 / me_range=16 / chroma_me=1 / trellis=0 / 8x8dct=0 / cqm=0 / deadzone=21,11 / fast_pskip=1 / chroma_qp_offset=0 / threads=2 / lookahead_threads=1 / sliced_threads=0 / nr=0 / decimate=1 / interlaced=0 / bluray_compat=0 / constrained_intra=0 / bframes=0 / weightp=2 / keyint=250 / keyint_min=25 / scenecut=40 / intra_refresh=0 / rc_lookahead=40 / rc=abr / mbtree=1 / bitrate=4496 / ratetol=1.0 / qcomp=0.60 / qpmin=10 / qpmax=51 / qpstep=4 / ip_ratio=1.41 / aq=1:1.00
Дата кодирования : UTC 2015-11-09 04:27:25
Дата пометки : UTC 2015-11-09 04:27:25
Аудио
Идентификатор : 2
Формат : AC-3
Формат/Информация : Audio Coding 3
Расширение режима : CM (complete main)
Параметр Endianness формата : Big
Идентификатор кодека : ac-3
Продолжительность : 3 м. 29 с.
Вид битрейта : Постоянный
Битрейт : 320 Кбит/сек
Каналы : 6 каналов
Расположение каналов : Front: L C R, Side: L R, LFE
Частота : 48,0 КГц
Битовая глубина : 16 бит
Метод сжатия : С потерями
Размер потока : 7,98 Мбайт (7%)
Дата кодирования : UTC 2015-11-09 04:27:25
Дата пометки : UTC 2015-11-09 04:27:25

Скрины

                     

ТрекЛист

01. Alesha Dixon - Do It For Love (Official Video) (00:03:11)
02. Alexander Rybak ft. Pernille Hogstad Stene - Venner fra fortellingen om Trolle (Official Video) (00:03:29)
03. Betta - Maria Magdalena (Official Video) (00:03:49)
04. Chris Largo ft. Orry Jackson - I Want U Now (Official Video) (00:03:36)
05. Dallas Smith - Kids With Cars (Official Video) (00:03:02)
06. Elizabeth Rose - Shoulda Coulda Woulda (Official Video) (00:03:48)
07. Flo Rida ft. Gutta Twins - Miami (Official Video) (00:03:46)
08. Izzy Bizu - White Tiger (Official Video) (00:02:55)
09. Little Mix - Love Me Like You (Radio 1's Teen Awards 2015) (Official Video) (00:03:24)
10. Lost Kings ft. Jessame - Bad (Official Video) (00:03:18)
11. Mischa Daniels ft. U-Jean - That Girl (Official Video) (00:02:59)
12. Pentatonix - Sing (Official Video) (00:04:19)
13. Rod Stewart - Way Back Home (Official Video) (00:04:38)
14. Sonique – Sky Madson Remix (Official Video) (00:05:09)
15. Алина Гросу - Ревную (Премьера!) (00:03:17)
16. Анна Семенович ft. Артём Пиндюра – Boys (Премьера!) (00:03:31)
17. Винтаж ft. Smash - Город, Где Сбываются Мечты (Премьера!) (00:03:53)
18. Инфинити - Как тебя звать (Премьера!) (00:03:34)
19. Март Бабаян ft. Galkina - Сумасшедшие (Премьера!) (00:03:06)
20. Сати Казанова - Спит мое счастье (Премьера!) (00:04:13)
21. Сергей Грей'С - Любить тебя, любить (Премьера!) (00:03:20)
22. Тамерлан и Алена - Я Буду (Official Video) (00:03:32)
23. Татьяна Котова - Я буду сильней (Премьера!) (00:03:33)
24. Тина Кароль - Сдаться Ты Всегда Успеешь (Премьера!) (00:05:33)
25. Юрий Шатунов - И я под гитару (Премьера!) (00:03:50)

_________________
Other forum [Profile] [PM]

Region_13 ®

Gender:

Longevity: 6 years 9 months

Posts: 782

Location: Мальдивы

Торрент-статистика

Post 17-Nov-2015 19:14 (after 2 minutes)

[Quote]

с 27 раза создал раздачу ,и то,не так как хотелось...Считал специально)))))конкретно Глюканы на Трекере

_________________
Other forum [Profile] [PM]
Display posts from previous:    
Reply to topic

The time now is: Today 07:11

All times are GMT + 3 Hours



You cannot post new topics in this forum
You cannot reply to topics in this forum
You cannot edit your posts in this forum
You cannot delete your posts in this forum
You cannot vote in polls in this forum
You cannot attach files in this forum
You cannot download files in this forum