Сегодня идет свободное скачивание без начисления Download

Футурама (том 1) / Futurama (volume 1) / Сезон: 1 / Серии: 13 из 13 (Мэтт Грейнинг / Matt Groening) [1999, США, Фантастика, комедия, драма, NTSC, DVDRemux] MVO + VO Rus Ukr Eng

Ответить на тему
 
Автор
Сообщение

Omen ®

Стаж: 4 года 10 месяцев

Сообщений: 190643

Торрент-статистика

Пост 11-Ноя-2015 00:00

[Цитировать]

Футурама (том 1) / Futurama (volume 1)
Страна: США
Жанр: Фантастика, комедия, драма
Продолжительность: 00:22:34 / серия
Год выпуска: 1999
Перевод: Профессиональный (многоголосый закадровый) [Ren-TV]
Перевод 2: Одноголосый (закадровый) [Михаил Яроцкий (kyberpunk)]
Русские субтитры: нет
Режиссёр: Мэтт Грейнинг / Matt Groening
Роли озвучивали: Билли Уэст, Кэти Сагал, Джон ДиМаджио, Тресс МакНилл, Морис ЛаМарш, Фил ЛаМарр, Лоурен Том, Дэвид Херман, Фрэнк Уэлкер, Бирн Оффатт, Кэт Сауси, Доун Льюис.
Описание: Сериал начинается с того, что разносчик пиццы из Нью-Йорка Филипп Дж. Фрай случайно (как это произошло на самом деле, раскроется в 10 эпизоде 4-го сезона «Загадка Фрая») был заморожен в криогенной камере ровно в 00 часов 00 минут 00 секунд 1 января 2000 года и разморожен 1000 лет (365242,5 суток) спустя — 31 декабря 2999 года. Фрай оказывается в далёком будущем в городе Новый Нью-Йорк.
Список серий:
1ACV01 «Space Pilot 3000» (Космический пилот 3000)
1ACV02 «The Series Has Landed» (Сериал приземлился)
1ACV03 «I, Roommate» (Я, сосед)
1ACV04 «Love’s Labours Lost in Space» (Рабы любви, затерянные в космосе)
1ACV05 «Fear of a Bot Planet» (Страх планеты роботов)
1ACV06 «A Fishful of Dollars» (Пригоршня долларов)
1ACV07 «My Three Suns» (Мои три солнца)
1ACV08 «A Big Piece of Garbage» (Большой кусок мусора)
1ACV09 «Hell Is Other Robots» (Ад — это другие роботы)
1ACV10 «A Flight to Remember» (Незабываемый полёт)
1ACV11 «Mars University» (Марсианский университет)
1ACV12 «When Aliens Attack» (Когда пришельцы атакуют)
1ACV13 «Fry and the Slurm Factory» (Фрай и фабрика «Слёрма»)
Ссылка на предыдущие и альтернативные раздачи: Futurama
Семпл: multi-up
Качество: DVDRemux
Формат: MKV
Видео: NTSC, 720x480 (4:3), 23.976 fps, 5 990 Kbps
Аудио: AC-3, 48.0 KHz, 2 channels, 192 Kbps [Русский, Многоголосый закадровый (Ren-TV)]
Аудио 2: AC-3, 48.0 KHz, 2 channels, 224 Kbps [Русский, Одноголосый закадровый (Михаил Яроцкий (kyberpunk))]
Аудио 3: MP3, 44.1 KHz, 2 channels, 192 Kbps [Украинский, Дублированный (Пилот по заказу М1)]
Аудио 4: AC-3, 48.0 KHz, 2 channels, 192 Kbps [Английский, Оригинал]
Аудио 5: AC-3, 48.0 KHz, 2 channels, 192 Kbps [Английский, Комментарии]
Субтитры: Отсутствуют

Подробные технические данные

GeneralUnique ID : 210318910317050787937476476720948144107 (0x9E39F2DFA5175CDD888AD1F8ECBF67EB)Complete name : G:\Daniel\MyReal\Futurama.S01.NTSC.DVDRemux.RUS.UKR.ENG\1ACV01 «Space Pilot 3000» (Космический пилот 3000).mkvFormat : MatroskaFormat version : Version 4 / Version 2File size : 1.16 GiBDuration : 23mn 19sOverall bit rate mode : VariableOverall bit rate : 7 113 KbpsEncoded date : UTC 2015-11-10 11:43:38Writing application : mkvmerge v8.5.2 ('Crosses') 64bitWriting library : libebml v1.3.3 + libmatroska v1.4.4DURATION : 00:23:19.008000000NUMBER_OF_FRAMES : 43719NUMBER_OF_BYTES : 33576192_STATISTICS_WRITING_APP : mkvmerge v8.5.2 ('Crosses') 64bit_STATISTICS_WRITING_DATE_UT : 2015-11-10 11:43:38_STATISTICS_TAGS : BPS DURATION NUMBER_OF_FRAMES NUMBER_OF_BYTES
VideoID : 1Format : MPEG VideoFormat version : Version 2Format profile : Main@MainFormat settings, BVOP : YesFormat settings, Matrix : CustomFormat settings, GOP : VariableCodec ID : V_MPEG2Codec ID/Info : MPEG 1 or 2 VideoBit rate mode : VariableBit rate : 5 980 KbpsMaximum bit rate : 9 800 KbpsWidth : 720 pixelsHeight : 480 pixelsDisplay aspect ratio : 4:3Frame rate mode : VariableOriginal frame rate : 23.976 fpsStandard : ComponentColor space : YUVChroma subsampling : 4:2:0Bit depth : 8 bitsScan type : ProgressiveScan order : 2:3 PulldownCompression mode : LossyTime code of first frame : 00:59:58;00Time code source : Group of pictures headerTitle : 1ACV01 «Space Pilot 3000»Default : YesForced : NoColor primaries : BT.601 NTSCTransfer characteristics : BT.601Matrix coefficients : BT.601
Audio #1ID : 2Format : AC-3Format/Info : Audio Coding 3Mode extension : CM (complete main)Format settings, Endianness : BigCodec ID : A_AC3Duration : 23mn 19sBit rate mode : ConstantBit rate : 192 KbpsChannel(s) : 2 channelsChannel positions : Front: L RSampling rate : 48.0 KHzCompression mode : LossyStream size : 32.0 MiB (3%)Title : Многоголосый закадровый (Ren-TV)Language : RussianDefault : YesForced : No
Audio #2ID : 3Format : AC-3Format/Info : Audio Coding 3Mode extension : CM (complete main)Format settings, Endianness : BigCodec ID : A_AC3Duration : 23mn 19sBit rate mode : ConstantBit rate : 224 KbpsChannel(s) : 2 channelsChannel positions : Front: L RSampling rate : 48.0 KHzCompression mode : LossyStream size : 37.4 MiB (3%)Title : Одноголосый (закадровый) Михаил Яроцкий (kyberpunk)Language : RussianDefault : NoForced : No
Audio #3ID : 4Format : MPEG AudioFormat version : Version 1Format profile : Layer 3Codec ID : A_MPEG/L3Codec ID/Hint : MP3Duration : 23mn 19sBit rate mode : ConstantBit rate : 192 KbpsChannel(s) : 2 channelsSampling rate : 44.1 KHzCompression mode : LossyStream size : 32.0 MiB (3%)Title : Дублированный (Пилот по заказу М1)Language : UkrainianDefault : NoForced : No
Audio #4ID : 5Format : AC-3Format/Info : Audio Coding 3Format profile : Dolby DigitalMode extension : CM (complete main)Format settings, Endianness : BigCodec ID : A_AC3Duration : 23mn 19sBit rate mode : ConstantBit rate : 192 KbpsChannel(s) : 2 channelsChannel positions : Front: L RSampling rate : 48.0 KHzCompression mode : LossyStream size : 32.0 MiB (3%)Title : OriginalLanguage : EnglishDefault : NoForced : No
Audio #5ID : 6Format : AC-3Format/Info : Audio Coding 3Format profile : Dolby DigitalMode extension : CM (complete main)Format settings, Endianness : BigCodec ID : A_AC3Duration : 23mn 19sBit rate mode : ConstantBit rate : 192 KbpsChannel(s) : 2 channelsChannel positions : Front: L RSampling rate : 48.0 KHzCompression mode : LossyStream size : 32.0 MiB (3%)Title : Directors commentsLanguage : EnglishDefault : NoForced : No

Скриншоты

Вне форума [Профиль] [ЛС]
Показать сообщения:    
Ответить на тему

Текущее время: Сегодня 09:55

Часовой пояс: GMT + 3



Вы не можете начинать темы
Вы не можете отвечать на сообщения
Вы не можете редактировать свои сообщения
Вы не можете удалять свои сообщения
Вы не можете голосовать в опросах
Вы не можете прикреплять файлы к сообщениям
Вы не можете скачивать файлы