Сегодня идет свободное скачивание без начисления Download

Гриффины / Family Guy / Сезон: 13 / Серии: 1-3 (18) (Сет МакФарлейн / Seth MacFarlane) [2014, Ситком, чёрный юмор, буффонада, комедия, пародия, WEB-DL 720p] 2xMVO (2x2, Filiza Studio) + Original + Sub (Eng)

Ответить на тему
 
Автор
Сообщение

Omen ®

Стаж: 5 лет

Сообщений: 190529

Торрент-статистика

Пост 09-Ноя-2015 21:01

[Цитировать]

-Год выпуска: 2014
Страна: США
Студия: Twentieth Century Fox Film Corporation
Жанр: Ситком, чёрный юмор, буффонада, комедия, пародия
Продолжительность: ~44 минуты (1 серия) и ~22 минуты (остальные)
Перевод:
  • Профессиональный (многоголосый закадровый) студия "ZoneVision" по заказу ,
  • Профессиональный (многоголосый закадровый) Filiza Studio
-Режиссёр: Сет МакФарлейн / Seth MacFarlane-Роли озвучивали:
  • Оригинал: Сет МакФарлейн, Алекс Борштейн, Сет Грин, Мила Кунис, Майк Генри и другие.
  • 2x2: Олег Форостенко, Иван Калинин, Людмила Ильина.
  • Filiza Studio: Света, darkFIL, Михаил Литвин (Little), VO-Production, Пётр "Гланц" Иващенко, Екатерина Брайковская и другие.
-Описание: "Гриффины" (Family Guy) - анимационное ТВ-Шоу, созданное Сетом МакФарлейном (Seth MacFarlane) для телеканала FOX. Как нетрудно догадаться, главными героями шоу является семейка Гриффинов: тупой, но полный сумашедших идей, составляющих львиную долю шуток сериала, отец семейства Питер; его любящя и терпеливая жена Лойс, всеми силами пытающаяся превратить Гриффинов в нормальную семью; их интеллектуально развитый не по годам, вынашивающий идею мирового господства младший сын Стьюи; дочь-ботаник, обречённая из-за этого на одиночество и непонимание как в школе так и дома, Мэг; и 13-ти летний отсталый в развитии лет на 10, сын Крис. Также полноценным членом семьи является пёс Брайн - склонный к меланхолии эстет, спокойно наблюдающий с бокалом вина в лапе над приключениями Питера и остальных членов семьи (и это при всём притом, что остальные собаки в сериале не являются очеловеченными).-РЕЛИЗ ОТ: V.SERIJ2013-Спасибо #Antisnl# за запись звука, gbitlegion за сборку озвучки Filiza Studio и v.serij2013 (т.е., мне) за синхронизацию аудиодорожки 2x2.-Качество: WEB-DL 720p
Формат: MKV
Видео кодек: H.264
Аудио кодек: AC3
Видео: H.264, 1280x720 (16:9), 23.976 fps, ~3652 kbps, 0.165 bit/pixel
Аудио:
  • русская |2x2|: AC3, 48 kHz, 2 ch, 192 kbps
    русская |Filiza Studio|: AC3, 48 kHz, 6 ch, 384 kbps
  • английская |Оригинал|: AC3, 48 kHz, 6 ch, 384 kbps
Субтитры: английские-Все раздачи мультсериала- -

Список серий

01. The Simpsons Guy
02. The Book of Joe
03. Baking Bad

Media Info

Код:
General
Unique ID                                : 197282382486483306734289006053532008116 (0x946B346D51B1F5EE970B1AEE35AE7EB4)
Complete name                            : E:\Video\HD\Animated Series (HD)\Family Guy Season 13 (WEB-DL 720p)\01. The Simpsons Guy.mkv
Format                                   : Matroska
Format version                           : Version 4 / Version 2
File size                                : 1.44 GiB
Duration                                 : 43mn 43s
Overall bit rate                         : 4 706 Kbps
Movie name                               : Family Guy Season 13 (WEB-DL | 720p | v.serij2013)
Encoded date                             : UTC 2015-11-03 10:39:11
Writing application                      : mkvmerge v8.2.0 ('World of Adventure') 32bit
Writing library                          : libebml v1.3.1 + libmatroska v1.4.2
DURATION                                 : 00:43:43.072000000
NUMBER_OF_FRAMES                         : 81971
NUMBER_OF_BYTES                          : 62953728
_STATISTICS_WRITING_APP                  : mkvmerge v8.2.0 ('World of Adventure') 32bit
_STATISTICS_WRITING_DATE_UTC             : 2015-11-03 10:39:11
_STATISTICS_TAGS                         : BPS DURATION NUMBER_OF_FRAMES NUMBER_OF_BYTES
Video
ID                                       : 1
Format                                   : AVC
Format/Info                              : Advanced Video Codec
Format profile                           : High@L3.1
Format settings, CABAC                   : No
Format settings, ReFrames                : 2 frames
Codec ID                                 : V_MPEG4/ISO/AVC
Duration                                 : 43mn 43s
Bit rate                                 : 3 652 Kbps
Width                                    : 1 280 pixels
Height                                   : 720 pixels
Display aspect ratio                     : 16:9
Frame rate mode                          : Constant
Frame rate                               : 23.976 fps
Color space                              : YUV
Chroma subsampling                       : 4:2:0
Bit depth                                : 8 bits
Scan type                                : Progressive
Bits/(Pixel*Frame)                       : 0.165
Stream size                              : 1.12 GiB (78%)
Language                                 : English
Default                                  : Yes
Forced                                   : No
Color primaries                          : BT.709
Transfer characteristics                 : BT.709
Matrix coefficients                      : BT.709
Audio #1
ID                                       : 2
Format                                   : AC-3
Format/Info                              : Audio Coding 3
Mode extension                           : CM (complete main)
Format settings, Endianness              : Big
Codec ID                                 : A_AC3
Duration                                 : 43mn 43s
Bit rate mode                            : Constant
Bit rate                                 : 192 Kbps
Channel(s)                               : 2 channels
Channel positions                        : Front: L R
Sampling rate                            : 48.0 KHz
Bit depth                                : 16 bits
Compression mode                         : Lossy
Stream size                              : 60.0 MiB (4%)
Title                                    : MVO (2x2)
Language                                 : Russian
Default                                  : Yes
Forced                                   : No
Audio #2
ID                                       : 3
Format                                   : AC-3
Format/Info                              : Audio Coding 3
Mode extension                           : CM (complete main)
Format settings, Endianness              : Big
Codec ID                                 : A_AC3
Duration                                 : 43mn 43s
Bit rate mode                            : Constant
Bit rate                                 : 384 Kbps
Channel(s)                               : 6 channels
Channel positions                        : Front: L C R, Side: L R, LFE
Sampling rate                            : 48.0 KHz
Bit depth                                : 16 bits
Compression mode                         : Lossy
Stream size                              : 120 MiB (8%)
Title                                    : MVO (Filiza Studio)
Language                                 : Russian
Default                                  : No
Forced                                   : No
Audio #3
ID                                       : 4
Format                                   : AC-3
Format/Info                              : Audio Coding 3
Mode extension                           : CM (complete main)
Format settings, Endianness              : Big
Codec ID                                 : A_AC3
Duration                                 : 43mn 43s
Bit rate mode                            : Constant
Bit rate                                 : 384 Kbps
Channel(s)                               : 6 channels
Channel positions                        : Front: L C R, Side: L R, LFE
Sampling rate                            : 48.0 KHz
Bit depth                                : 16 bits
Compression mode                         : Lossy
Stream size                              : 120 MiB (8%)
Title                                    : Original
Language                                 : English
Default                                  : No
Forced                                   : No
Text
ID                                       : 5
Format                                   : UTF-8
Codec ID                                 : S_TEXT/UTF8
Codec ID/Info                            : UTF-8 Plain Text
Title                                    : Original
Language                                 : English
Default                                  : No
Forced                                   : No
[/spoiler]
-
Вне форума [Профиль] [ЛС]
Показать сообщения:    
Ответить на тему

Текущее время: Сегодня 01:06

Часовой пояс: GMT + 3



Вы не можете начинать темы
Вы не можете отвечать на сообщения
Вы не можете редактировать свои сообщения
Вы не можете удалять свои сообщения
Вы не можете голосовать в опросах
Вы не можете прикреплять файлы к сообщениям
Вы не можете скачивать файлы