Сегодня идет свободное скачивание без начисления Download

Гриффины / Family Guy / Сезон: 13 / Серии: 1-3 из 18 (Сет МакФарлейн / Seth MacFarlane) [2014-2015, США, Комедия, Пародия, Сатира, SATRip] MVO

Ответить на тему
 
Автор
Сообщение

Omen ®

Стаж: 5 лет

Сообщений: 190529

Торрент-статистика

Пост 09-Ноя-2015 21:01

[Цитировать]

Гриффины / Family Guy
Страна: США
Жанр: Комедия, Пародия, Сатира
Продолжительность: ~20 минут
Год выпуска: 2014-2015
Перевод: Профессиональный (многоголосый закадровый)
Русские субтитры: нет
Режиссёр: Сет МакФарлейн / Seth MacFarlane
Роли озвучивали: Олег Форостенко - Питер, Брайан, Кливленд и другие.
Иван Калинин - Крис, Стьюи, Куагмир и другие.
Людмила Ильина - все женские и детские роли.
Описание: "Гриффины" - анимационное ТВ-шоу, созданное Сетом МакФарлейном для телеканала FOX. Как нетрудно догадаться, главными героями шоу является семейка Гриффинов: тупой, но полный сумасшедших идей, составляющих львиную долю шуток сериала, отец семейства Питер; его любящая и терпеливая жена Лоис, всеми силами пытающаяся превратить Гриффинов в нормальную семью; их интеллектуально развитый не по годам, вынашивающий идею мирового господства младший сын Стьюи; дочь-ботаник, обречённая из-за этого на одиночество и непонимание как в школе так и дома, Мэг; и 13-ти летний отсталый в развитии лет на 10, сын Крис. Также полноценным членом семьи является пёс Брайан - склонный к меланхолии эстет, спокойно наблюдающий с бокалом вина в лапе над приключениями Питера и остальных членов семьи (и это при всём притом, что остальные собаки в сериале не являются очеловеченными).
Список серий:
01. The Simpsons Guy (Симпсоны и Гриффины: Кроссовер) (серия в 2 частях)
02. The Book of Joe (Книга Джо)
03. Baking Bad (Плохая выпечка)
Доп. информация: Представляю новый 13 сезон мультсериала "Гриффины" в переводе телеканала 2х2. В новом сезоне сменился третий голос: вместо Ильи Хвостикова теперь половину мужских голосов будет озвучивать Иван Калинин. Я сначала по голосу подумал, что это Василий Зотов, но в раздаче "v.serij2013" указан Калинин, пусть будет так, кто первым написал, тот и прав. В общем наслаждайтесь!
Качество: SATRip
Формат: AVI
Видео: Xvid, 720х576, 25.00fps, 1700 kbps
Аудио: MPEG Audio Layer 3, 48000Hz, stereo, 192 kbps
Субтитры: отсутствуют

Подробные технические данные

GeneralComplete name : C:\Documents and Settings\Admin\Мои документы\Гриффины 13\01(1). The Simpsons Guy (1).aviFormat : AVIFormat/Info : Audio Video InterleaveFile size : 248 MiBDuration : 20mn 16sOverall bit rate : 1 707 KbpsWriting application : Lavf52.61.0
VideoID : 0Format : MPEG-4 VisualFormat profile : Simple@L1Format settings, BVOP : NoFormat settings, QPel : NoFormat settings, GMC : No warppointsFormat settings, Matrix : Default (H.263)Codec ID : XVIDCodec ID/Hint : XviDDuration : 20mn 16sBit rate : 1 502 KbpsWidth : 720 pixelsHeight : 576 pixelsDisplay aspect ratio : 4:3Frame rate : 25.000 fpsStandard : PALColor space : YUVChroma subsampling : 4:2:0Bit depth : 8 bitsScan type : ProgressiveCompression mode : LossyBits/(Pixel*Frame) : 0.145Stream size : 218 MiB (88%)Writing library : Lavc52.66.0
AudioID : 1Format : MPEG AudioFormat version : Version 1Format profile : Layer 3Mode : Joint stereoMode extension : MS StereoCodec ID : 55Codec ID/Hint : MP3Duration : 20mn 16sBit rate mode : ConstantBit rate : 192 KbpsChannel(s) : 2 channelsSampling rate : 44.1 KHzCompression mode : LossyStream size : 27.9 MiB (11%)Alignment : Aligned on interleavesInterleave, duration : 26 ms (0.65 video frame)

Скриншоты



Вне форума [Профиль] [ЛС]
Показать сообщения:    
Ответить на тему

Текущее время: Сегодня 16:15

Часовой пояс: GMT + 3



Вы не можете начинать темы
Вы не можете отвечать на сообщения
Вы не можете редактировать свои сообщения
Вы не можете удалять свои сообщения
Вы не можете голосовать в опросах
Вы не можете прикреплять файлы к сообщениям
Вы не можете скачивать файлы