Сегодня идет свободное скачивание без начисления Download

Симпсоны / The Simpsons / Сезон: 27 / Серии: 1-4 из 22 (Мэтт Гроунинг / Matt Groening) [2015, Комедия, мультсериал, WEB-DLRip] MVO [VO-production]

Ответить на тему
 
Автор
Сообщение

Omen ®

Стаж: 4 года 10 месяцев

Сообщений: 190643

Торрент-статистика

Пост 02-Ноя-2015 15:02

[Цитировать]

Симпсоны / The Simpsons
Страна: США
Жанр: Комедия, мультсериал
Продолжительность: ~ 00:22:00
Год выпуска: 2015
Перевод: Профессиональный (многоголосый закадровый) [VO-production]
Русские субтитры: нет
Режиссёр: Мэтт Гроунинг / Matt Groening
Роли озвучивали: Дэн Кастелланета, Джули Кавнер, Нэнси Картрайт, Ярдли Смит, Гарри Ширер, Хэнк Азария, Памела Хейден, Тресс МакНилл, Карл Видерготт, Мэгги Росвэлл
Описание: Симпсоны живут в вымышленном городе Спрингфилд, со своим обществом и историей. Гомер - отец семейства, который дает плохие советы и работает инспектором безопасности на атомной электростанции; Мардж - любящая мать и жена, старается сохранить спокойствие в семье; Барт - 10 летний хулиган; Лиза - философский 8-летний ребенок; и Мэгги - младенец, который общается посредством соски.

Качество: WEB-DLRip
Формат: AVI
Видео: XviD, 720x400, 23.976 fps, 1293 kbps
Аудио: MP3, 48.0 KHz, 2 ch, 192 kbps
Субтитры: отсутствуют

Список серий

01. Every Man's Dream
02. Cue Detective
03. Puffless
04. Halloween of Horror

MediaInfo

General Complete name : The_Simpsons_2701_WEB-DLRip_VO-production.avi Format : AVI Format/Info : Audio Video Interleave File size : 234 MiB Duration : 21mn 55s Overall bit rate : 1 496 Kbps Writing application : XviD4PSP 6.0 / 54.3.100 Video #0 ID : 0 Format : MPEG-4 Visual Format profile : Advanced Simple@L5 Format settings, BVOP : 2 Format settings, QPel : No Format settings, GMC : 3 warppoints Format settings, Matrix : Default (H.263) Codec ID : XVID Codec ID/Hint : XviD Duration : 21mn 54s Bit rate : 1 293 Kbps Width : 720 pixels Height : 400 pixels Display aspect ratio : 16:9 Frame rate : 23.976 fps Color space : YUV Chroma subsampling : 4:2:0 Bit depth : 8 bits Scan type : Progressive Compression mode : Lossy Bits/(Pixel*Frame) : 0.187 Stream size : 203 MiB (86%) Writing library : XviD 64 Audio #1 ID : 1 Format : AC-3 Format/Info : Audio Coding 3 Mode extension : CM (complete main) Format settings, Endianness : Big Codec ID : 2000 Duration : 21mn 55s Bit rate mode : Constant Bit rate : 192 Kbps Channel(s) : 2 channels Channel positions : Front: L R Sampling rate : 48.0 KHz Bit depth : 16 bits Compression mode : Lossy Stream size : 30.1 MiB (13%) Alignment : Aligned on interleaves Interleave, duration : 32 ms (0.77 video frame)

Скриншоты меню

Скриншоты

Раздача ведется путем добавления новых серий

Когда раздача ведётся путём добавления новых серий, при каждом добавлении создётся новый торрент. Чтобы начать докачку новой серии, пользователям необходимо сделать следующее:
(1) остановить скачивание,
(2) удалить старый торрент у себя из клиента (старые серии удалять не надо),
(3) скачать новый торрент и запустить его у себя в клиенте вместо старого, при этом указать клиенту путь в старую папку, куда и должно происходить скачивание новых серий.
Ваш клиент при этом должен произвести хеширование (проверку) старой папки (если не производит сам - помогите ему сделать это), и будет докачивать только те серии, которых у вас ещё нет. Старые серии при этом не удаляются, а продолжают раздаваться!
Eсли вы уже удалили старые серии, то предотвратить повторную закачку старых серий можно, отжав галочку в соответсвующих местах при запуске нового торрента. По возможности, желательно не удалять старые серии как можно дольше, чтобы релизёр не столько продолжал раздавать старые серии, а смог сконцентрироваться на новых.
Вне форума [Профиль] [ЛС]
Показать сообщения:    
Ответить на тему

Текущее время: Сегодня 06:46

Часовой пояс: GMT + 3



Вы не можете начинать темы
Вы не можете отвечать на сообщения
Вы не можете редактировать свои сообщения
Вы не можете удалять свои сообщения
Вы не можете голосовать в опросах
Вы не можете прикреплять файлы к сообщениям
Вы не можете скачивать файлы